Достать ножи: Стеклянная луковица

MVO

Добыча

Дубляж

Уэнсдэй

1 сезон

Тор

Дубляж

13 клиническая

1 сезон

Жестокая ночь

MVO

Одни из нас

1 сезон

Deluxe

pack

Рекомендуем

30

Пиратка

ВАЖНО

ВАЖНО

Ghostwire

Пиратка

jed

RePack

nioh2

RePack

RDR2

RePack

NEED FOR SPEED™ PAYBACK

RePack

скачать торрент

Кинопоиск HD

Острые козырьки 6 сезон

6 сезон

FAR CRY 6

RePack

скачать торрент

Лицензия

скачать торрент

MVO

1

1 сезон

скачать торрент

1 сезон

скачать торрент

Лицензия

  

Не время умирать / No Time to Die (Кэри Дзёдзи Фукунага) [2021, Боевик, триллер, приключения, WEB-DL 2160p SDR] [VO] (feofanio)

Не время умирать через торрент piratbit.org

Размер: 23.13 GB | Добавлен: 1 год 2 мес. назад | Торрент скачан:181 раз
Смотреть онлайн | Скачать | Поддержите нас   

10-11-2021 09:22 Не время умирать Скачать торрент  

Не время умирать / No Time to Die Год выпуска: 2021
Страна: Великобритания, США
Студия: Metro-Goldwyn-Mayer (MGM), Universal Pictures, Eon Productions
Жанр: Боевик, триллер, приключения
Продолжительность: 02:43:23
Перевод: Любительский (одноголосый) | feofanio
Субтитры: русские (feofanio)

Режиссер: Кэри Дзёдзи Фукунага

В ролях: Дэниэл Крэйг, Рами Малек, Леа Сейду, Лашана Линч, Бен Уишоу, Наоми Харрис, Билли Магнуссен, Ана де Армас, Кристоф Вальц, Рэйф Файнс

Описание: Джеймс Бонд оставил оперативную службу и наслаждается спокойной жизнью на Ямайке. Все меняется, когда на острове появляется его старый друг Феликс Лейтер из ЦРУ с просьбой о помощи. Миссия по спасению похищенного ученого оказывается опаснее, чем предполагалось изначально. Бонд попадает в ловушку к таинственному злодею, вооруженному опасным технологическим оружием.

rating

Тип релиза: WEB-DL 2160p SDR
Формат: MKV
Видео: HEVC, 19,3 Mбит/с, 3832x1596
Аудио: Русский (AC3, 2 ch, 192 Кбит/с)
Аудио 2: Английский (E-AC3 Atmos, 6 ch, 768 Кбит/с)
Формат субтитров: softsub (SRT)
Общее
Уникальный идентификатор : 75292296081352273226285006599919121444 (0x38A4C4CD7C88E60A28A1088F11BA3424)
Полное имя : Не время умирать.2021.SDR.WEB-DL 2160p.SDR.mkv
Формат : Matroska
Версия формата : Version 4
Размер файла : 23,1 Гбайт
Продолжительность : 2 ч. 43 м.
Общий поток : 20,3 Мбит/сек
Название фильма : Не время умирать.2021.SDR.WEB-DL 2160p.SDR
Дата кодирования : UTC 2021-11-10 08:05:13
Программа кодирования : mkvmerge v61.0.0 ('So') 64-bit
Библиотека кодирования : libebml v1.4.2 + libmatroska v1.6.4
Attachments : poster.jpg

Видео
Идентификатор : 1
Формат : HEVC
Формат/Информация : High Efficiency Video Coding
Профиль формата : Main 10@L5.1@High
Идентификатор кодека : V_MPEGH/ISO/HEVC
Продолжительность : 2 ч. 43 м.
Битрейт : 19,3 Мбит/сек
Ширина : 3 832 пикселя
Высота : 1 596 пикселей
Соотношение сторон : 2,40:1
Режим частоты кадров : Постоянный
Частота кадров : 23,976 (24000/1001) кадра/сек
Цветовое пространство : YUV
Субдискретизация насыщенности : 4:2:0
Битовая глубина : 10 бит
Бит/(Пиксели*Кадры) : 0.132
Размер потока : 22,0 Гбайт (95%)
Библиотека кодирования : x265 3.0+1-ed72af837053:[Windows][GCC 8.2.0][64 bit] 10bit
Настройки программы : cpuid=1111039 / frame-threads=6 / numa-pools=40 / wpp / no-pmode / no-pme / no-psnr / no-ssim / log-level=2 / input-csp=1 / input-res=3832x1596 / interlace=0 / total-frames=235056 / level-idc=51 / high-tier=1 / uhd-bd=0 / ref=3 / no-allow-non-conformance / repeat-headers / annexb / aud / hrd / info / hash=0 / no-temporal-layers / no-open-gop / min-keyint=1 / keyint=24 / gop-lookahead=0 / bframes=4 / b-adapt=2 / b-pyramid / bframe-bias=0 / rc-lookahead=25 / lookahead-slices=4 / scenecut=40 / radl=0 / no-splice / no-intra-refresh / ctu=64 / min-cu-size=8 / no-rect / no-amp / max-tu-size=32 / tu-inter-depth=1 / tu-intra-depth=1 / limit-tu=0 / rdoq-level=0 / dynamic-rd=0.00 / no-ssim-rd / signhide / no-tskip / nr-intra=0 / nr-inter=0 / no-constrained-intra / strong-intra-smoothing / max-merge=2 / limit-refs=3 / no-limit-modes / me=1 / subme=2 / merange=57 / temporal-mvp / weightp / no-weightb / no-analyze-src-pics / deblock=0:0 / no-sao / no-sao-non-deblock / rd=3 / no-early-skip / rskip / no-fast-intra / no-tskip-fast / no-cu-lossless / no-b-intra / no-splitrd-skip / rdpenalty=0 / psy-rd=2.00 / psy-rdoq=0.00 / no-rd-refine / no-lossless / cbqpoffs=0 / crqpoffs=0 / rc=crf / crf=16.0 / qcomp=0.60 / qpstep=4 / stats-write=0 / stats-read=0 / vbv-maxrate=160000 / vbv-bufsize=160000 / vbv-init=0.9 / crf-max=0.0 / crf-min=0.0 / ipratio=1.40 / pbratio=1.30 / aq-mode=1 / aq-strength=1.00 / cutree / zone-count=0 / no-strict-cbr / qg-size=32 / no-rc-grain / qpmax=69 / qpmin=0 / no-const-vbv / sar=1 / overscan=0 / videoformat=5 / range=0 / colorprim=2 / transfer=2 / colormatrix=2 / chromaloc=0 / display-window=0 / max-cll=0,0 / min-luma=0 / max-luma=1023 / log2-max-poc-lsb=8 / vui-timing-info / vui-hrd-info / slices=1 / opt-qp-pps / opt-ref-list-length-pps / no-multi-pass-opt-rps / scenecut-bias=0.05 / no-opt-cu-delta-qp / no-aq-motion / no-hdr / no-hdr-opt / no-dhdr10-opt / no-idr-recovery-sei / analysis-reuse-level=5 / scale-factor=0 / refine-intra=0 / refine-inter=0 / refine-mv=0 / refine-ctu-distortion=0 / no-limit-sao / ctu-info=0 / no-lowpass-dct / refine-analysis-type=0 / copy-pic=1 / max-ausize-factor=1.0 / no-dynamic-refine / no-single-sei / no-hevc-aq / qp-adaptation-range=1.00
Default : Да
Forced : Нет

Аудио #1
Идентификатор : 2
Формат : AC-3
Формат/Информация : Audio Coding 3
Коммерческое название : Dolby Digital
Идентификатор кодека : A_AC3
Продолжительность : 2 ч. 43 м.
Вид битрейта : Постоянный
Битрейт : 192 Кбит/сек
Каналы : 2 канала
Channel layout : L R
Частота : 48,0 КГц
Частота кадров : 31,250 кадров/сек (1536 SPF)
Метод сжатия : С потерями
Размер потока : 224 Мбайт (1%)
Заголовок : VO (feofanio)
Язык : Russian
Service kind : Complete Main
Default : Да
Forced : Нет

Аудио #2
Идентификатор : 3
Формат : E-AC-3 JOC
Формат/Информация : Enhanced AC-3 with Joint Object Coding
Коммерческое название : Dolby Digital Plus with Dolby Atmos
Идентификатор кодека : A_EAC3
Продолжительность : 2 ч. 43 м.
Вид битрейта : Постоянный
Битрейт : 768 Кбит/сек
Каналы : 6 каналов
Channel layout : L R C LFE Ls Rs
Частота : 48,0 КГц
Частота кадров : 31,250 кадров/сек (1536 SPF)
Метод сжатия : С потерями
Размер потока : 898 Мбайт (4%)
Заголовок : DDP 5.1 Atmos
Язык : English
Service kind : Complete Main
Default : Нет
Forced : Нет
Complexity index : 16
Number of dynamic objects : 15
Bed channel count : 1 канал
Bed channel configuration : LFE

Текст #1
Идентификатор : 4
Формат : UTF-8
Идентификатор кодека : S_TEXT/UTF8
Идентификатор кодека/Информация : UTF-8 Plain Text
Продолжительность : 2 ч. 36 м.
Битрейт : 71 бит/сек
Count of elements : 1690
Размер потока : 82,0 Кбайт (0%)
Язык : Russian
Default : Нет
Forced : Нет

Текст #2
Идентификатор : 5
Формат : UTF-8
Идентификатор кодека : S_TEXT/UTF8
Идентификатор кодека/Информация : UTF-8 Plain Text
Продолжительность : 2 ч. 15 м.
Битрейт : 1 бит/сек
Count of elements : 55
Размер потока : 1,21 Кбайт (0%)
Заголовок : Forced
Язык : English
Default : Нет
Forced : Нет

Текст #3
Идентификатор : 6
Формат : UTF-8
Идентификатор кодека : S_TEXT/UTF8
Идентификатор кодека/Информация : UTF-8 Plain Text
Продолжительность : 2 ч. 35 м.
Битрейт : 41 бит/сек
Count of elements : 1707
Размер потока : 47,2 Кбайт (0%)
Язык : English
Default : Нет
Forced : Нет

Текст #4
Идентификатор : 7
Формат : UTF-8
Идентификатор кодека : S_TEXT/UTF8
Идентификатор кодека/Информация : UTF-8 Plain Text
Продолжительность : 2 ч. 40 м.
Битрейт : 50 бит/сек
Count of elements : 2191
Размер потока : 59,5 Кбайт (0%)
Заголовок : SDH
Язык : English
Default : Нет
Forced : Нет

Текст #5
Идентификатор : 8
Формат : UTF-8
Идентификатор кодека : S_TEXT/UTF8
Идентификатор кодека/Информация : UTF-8 Plain Text
Продолжительность : 2 ч. 42 м.
Битрейт : 39 бит/сек
Count of elements : 1693
Размер потока : 46,7 Кбайт (0%)
Заголовок : Latin American
Язык : Spanish
Default : Нет
Forced : Нет

Текст #6
Идентификатор : 9
Формат : UTF-8
Идентификатор кодека : S_TEXT/UTF8
Идентификатор кодека/Информация : UTF-8 Plain Text
Продолжительность : 2 ч. 39 м.
Битрейт : 33 бит/сек
Count of elements : 1538
Размер потока : 38,7 Кбайт (0%)
Язык : French
Default : Нет
Forced : Нет

Текст #7
Идентификатор : 10
Формат : UTF-8
Идентификатор кодека : S_TEXT/UTF8
Идентификатор кодека/Информация : UTF-8 Plain Text
Продолжительность : 2 ч. 42 м.
Битрейт : 37 бит/сек
Count of elements : 1655
Размер потока : 44,8 Кбайт (0%)
Язык : Korean
Default : Нет
Forced : Нет

Меню
00:00:00.000 : Chapter 1
00:11:57.125 : Chapter 2
00:27:09.750 : Chapter 3
00:43:46.000 : Chapter 4
00:56:58.099 : Chapter 5
01:04:09.000 : Chapter 6
01:13:06.500 : Chapter 7
01:22:28.832 : Chapter 8
01:33:49.332 : Chapter 9
01:51:42.000 : Chapter 10
02:06:54.000 : Chapter 11
02:25:23.500 : Chapter 12
02:35:07.000 : Chapter 13



Скачать Не время умирать через торрент https://i116.fastpic.org/big/2021/1109/26/bc06d0f12fb5904aabfb355eb4e5e026.jpeg Скачать, смотреть онлайн Не время умирать бесплантно в хорошем качестве Описание: Джеймс Бонд оставил оперативную службу и наслаждается спокойной жизнью на Ямайке. Все меняется, когда на острове появляется его ... 9.9 10 15
Торрент: Зарегистрирован [2021-11-10 09:22] · скачан: 181 раз
Статус: T временная
Размер: 23.13 GB
Как cкачать? Как скачать Не время умирать через торрент | UTorrent

% Раздел Тема Автор DL S | L
Фильмы 2021 [DVDrip, WEB-DLRip, HDrip] (DUB, MVO) [ 2.11 GB ] Не время умирать / No Time to Die | Лицензия | BDRip Twi7ter Скачать
22 | 1
Ultra HD (UHD: 2K, 4K, 8K) [ 62.72 GB ] Не время умирать / No Time to Die | iTunes | 2160p, (Dolby Vision Profile 8 bober100 Скачать
2 | 0
Фильмы 2021 [DVDrip, WEB-DLRip, HDrip] (DUB, MVO) [ 1.46 GB ] Не время умирать / No Time to Die | Лицензия | BDRip Twi7ter Скачать
6 | 0
Ultra HD (UHD: 2K, 4K, 8K) [ 73.37 GB ] Не время умирать / No Time to Die | iTunes | 2160p, (Dolby Vision bober100 Скачать
1 | 0
Фильмы [HD 720p, 1080p] (Хороший звук DUB, MVO) [ 7.75 GB ] Не время умирать / No Time to Die | iTunes | 720p bober100 Скачать
1 | 0
Фильмы 2021 [DVDrip, WEB-DLRip, HDrip] (DUB, MVO) [ 2.25 GB ] Не время умирать / No Time to Die | Jaskier | DLRip-AVC sokol_ok Скачать
3 | 0
Фильмы 2021 [DVDrip, WEB-DLRip, HDrip] (DUB, MVO) [ 1.46 GB ] Не время умирать / No Time to Die | iTunes | BDRip bober100 Скачать
1 | 0

28-11-2019 20:33  


Отключить вcю реклaмy на сайте, в т.ч. и в плеере онлайн просмотра!

10-11-2021 16:35 Не время умирать Скачать торрент  

Подожду наилучшего перевода а то это шляпа



10-11-2021 18:42 Не время умирать Скачать торрент  

Перевод трешььь



07-12-2021 18:00 Не время умирать Скачать торрент  

не качайте! если только с субтитрами смотреть. перевода нет!



    Дорогой пользователь! Огромная просьба, поблагодарите релизера, оцените раздачу и оставьте свои комментарий, если Вы скачали Не время умирать через торрент бесплатно!!
    Комментировать посты могут только пользователи прошедшие не сложную регистрацию
    Показать сообщения:    


    Не время умирать через торрент
    Скачать бесплатно Не время умирать
    Не время умирать скачать торрент
    Не время умирать смотреть онлайн
    Cкачать фильм Не время умирать бесплатно
    Не время умирать скачать торрент в хорошем качестве
    Не время умирать смотреть онлайн бесплатно в хорошем качестве
    Вы не можете начинать темы
    Вы не можете отвечать на сообщения
    Вы не можете редактировать свои сообщения
    Вы не можете удалять свои сообщения
    Вы не можете голосовать в опросах
    Вы не можете прикреплять файлы к сообщениям
    Вы можете скачивать файлы
    Не время умирать / No Time to Die [2021, Боевик, триллер, приключения, WEB-DL 2160p SDR] [VO] смотреть онлайн, скачать торрент picoco.icu