Присоединяйтесь к нам в Telegram!, здесь всегда актуальный адрес сайта, оперативная поддержка и многое другое!!

>

5.9

iTunes

7.4

iTunes

9.4

1 сезон

1

7.4

2 сезон

7.2

iTunes

7.3

1 сезон

13

6.1

iTunes

8.3

Пиратка

30

ULTIMATE

pack

9.9

Лицензия

ВАЖНО

ИГРА 18+

pack

7.3

RePack

MK11

7.7

RePack

jed

7.8

RePack

fifa19

8.5

RePack

RDR2

RePack

NEED FOR SPEED™ PAYBACK

5 сезон

9 сезон

Бесстыжие 9 сезон

Все сериалы

все сериалы на PB.wtf

RePack

FAR CRY 5

Anonymous, доброй ночи, мы катастрофически не успеваем собрать деньги на оплату серверов, помогите нам пожалуйста 5,10,15р., для нас важна любая помощь . В качестве благодарности мы отключим Вам всю рекламу на сайте (укажите свой ник в строку Ваше имя)!

×
  
Magnet ссылка

Босс-молокосос / The Boss Baby (Том МакГрат) [2017 г., Мультфильм, комедия, семейный, BDRip 720p / 60 FPS, Дубляж BD CEE] от R.G. HD-Films piratbit.org

Босс-молокосос через торрент piratbit.org

Раздают: 4 [ 0 KB/s ]
Размер: 3.48 GB | Добавлен: 23 д. назад | Торрент скачан:13 раз
Смотреть онлайн Босс-молокосос | Скачать    Ребята, помогите собрать деньги на оплату серверов!!!

11-11-2021 13:59 Босс-молокосос Скачать торрент  

Босс-молокосос / The Boss Baby
Год выпуска: 2017
Страна: США
Жанр: Мультфильм, комедия, семейный
Продолжительность: 01:37:30
Перевод: Дубляж BD CEE
Субтитры: Русские ( Fors вшитые ), английские

Режиссер: Том МакГрат

Бюджет: $125 000 000
Премьера в мире: 12 марта 2017

rating

В ролях: Майлз Кристофер Бакши, Алек Болдуин, Эрик Белл мл., Стив Бушеми, Джимми Киммел, Лиза Кудроу, Тоби Магуайр, ВивиЭнн Йи

Описание: Эта актуальная во все времена история для взрослых и детей рассказывается от лица семилетнего брата новорожденного — фантазера Тима, который ревнует его к родителям. Но главный герой — совсем не простой ребенок, он обладает лидерскими задатками, уже носит деловые костюмы и во всем видит бизнес-задачу.

Однажды Тим узнает о готовящемся заговоре, целью которого является уничтожение любви, и организовал его директор компании «Puppy Co». Но одному Тиму не по силам его остановить. Мальчику предстоит объединиться со своим «нелюбимым» братом, чтобы спасти родителей и вернуть порядок на Земле.


Качество: BDRip 720p / 60 FPS
Формат: MKV
Видео кодек: H.264
Аудио кодек: AC3
Видео: x264, 1280 x 544 ( 2,35:1 ), 4731 kbps, 60,000 fps, ( 0.113 bpp)
Аудио#1: Русский, AC-3, 48.0 KHz, 6 ch, 384 Kbps
Релиз от: Автор рипа: slaventi-69
Общее
Уникальный идентификатор : 273104434179536777845996031865592960687 (0xCD760032AAF9428FC9E1C9A4665756AF)
Полное имя : F:\60 FPS\The.Boss.Baby.(2017).BDRip,720p,(60 Fps).mkv
Формат : Matroska
Версия формата : Version 4
Размер файла : 3,48 Гбайт
Продолжительность : 1 ч. 37 м.
Общий поток : 5115 Кбит/сек
Название фильма : Босс-молокосос / The Boss Baby (2017) BDRip 720p (60 Fps)
Дата кодирования : UTC 2021-11-11 12:52:47
Программа кодирования : mkvmerge v56.1.0 ('My Friend') 32-bit
Библиотека кодирования : libebml v1.4.2 + libmatroska v1.6.4

Видео
Идентификатор : 1
Формат : AVC
Формат/Информация : Advanced Video Codec
Профиль формата : High@L4.1
Настройки формата : CABAC / 8 Ref Frames
Параметр CABAC формата : Да
Параметр RefFrames формата : 8 кадров
Идентификатор кодека : V_MPEG4/ISO/AVC
Продолжительность : 1 ч. 37 м.
Битрейт : 4731 Кбит/сек
Ширина : 1280 пикселей
Высота : 544 пикселя
Соотношение сторон : 2,35:1
Режим частоты кадров : Постоянный
Частота кадров : 60,000 кадров/сек
Цветовое пространство : YUV
Субдискретизация насыщенности : 4:2:0
Битовая глубина : 8 бит
Тип развёртки : Прогрессивная
Бит/(Пиксели*Кадры) : 0.113
Размер потока : 3,22 Гбайт (92%)
Заголовок : slaventi-69 ( R.G. HD-Films | 60 fps )
Библиотека кодирования : x264 core 130 r2273 b3065e6
Настройки программы : cabac=1 / ref=9 / deblock=1:-3:-3 / analyse=0x3:0x133 / me=umh / subme=9 / psy=1 / psy_rd=1.00:0.00 / mixed_ref=1 / me_range=28 / chroma_me=1 / trellis=2 / 8x8dct=1 / cqm=0 / deadzone=21,11 / fast_pskip=0 / chroma_qp_offset=-2 / threads=10 / lookahead_threads=4 / sliced_threads=0 / nr=0 / decimate=1 / interlaced=0 / bluray_compat=0 / constrained_intra=0 / bframes=5 / b_pyramid=1 / b_adapt=2 / b_bias=0 / direct=2 / weightb=1 / open_gop=0 / weightp=2 / keyint=600 / keyint_min=23 / scenecut=40 / intra_refresh=0 / rc=crf / mbtree=0 / crf=16.7 / qcomp=0.60 / qpmin=0 / qpmax=69 / qpstep=4 / ip_ratio=1.40 / pb_ratio=1.30 / aq=1:1.00
Язык : English
Default : Да
Forced : Нет

Аудио
Идентификатор : 2
Формат : AC-3
Формат/Информация : Audio Coding 3
Коммерческое название : Dolby Digital
Идентификатор кодека : A_AC3
Продолжительность : 1 ч. 37 м.
Вид битрейта : Постоянный
Битрейт : 384 Кбит/сек
Каналы : 6 каналов
Channel layout : L R C LFE Ls Rs
Частота : 48,0 КГц
Частота кадров : 31,250 кадров/сек (1536 SPF)
Битовая глубина : 16 бит
Метод сжатия : С потерями
Размер потока : 268 Мбайт (8%)
Заголовок : Dub- BD CEE
Язык : Russian
ServiceKind/String : Complete Main
Default : Да
Forced : Нет

Текст #1
Идентификатор : 3
Формат : UTF-8
Идентификатор кодека : S_TEXT/UTF8
Идентификатор кодека/Информация : UTF-8 Plain Text
Продолжительность : 1 ч. 36 м.
Битрейт : 59 бит/сек
ElementCount : 1568
Размер потока : 42,1 Кбайт (0%)
Заголовок : Full
Язык : English
Default : Нет
Forced : Нет

Текст #2
Идентификатор : 4
Формат : UTF-8
Идентификатор кодека : S_TEXT/UTF8
Идентификатор кодека/Информация : UTF-8 Plain Text
Продолжительность : 1 ч. 37 м.
Битрейт : 102 бит/сек
ElementCount : 2015
Размер потока : 73,3 Кбайт (0%)
Заголовок : SDH
Язык : English
Default : Нет
Forced : Нет

Меню
00:00:00.000 : Chapter 1
00:03:45.892 : Chapter 2
00:08:58.288 : Chapter 3
00:11:45.914 : Chapter 4
00:14:59.565 : Chapter 5
00:19:38.219 : Chapter 6
00:22:52.788 : Chapter 7
00:28:27.247 : Chapter 8
00:30:26.116 : Chapter 9
00:33:45.482 : Chapter 10
00:36:57.257 : Chapter 11
00:39:18.356 : Chapter 12
00:42:35.344 : Chapter 13
00:46:20.611 : Chapter 14
00:51:37.720 : Chapter 15
00:53:25.285 : Chapter 16
00:56:28.719 : Chapter 17
00:59:35.405 : Chapter 18
01:04:03.173 : Chapter 19
01:08:15.758 : Chapter 20
01:11:29.911 : Chapter 21
01:16:25.247 : Chapter 22
01:23:10.110 : Chapter 23
01:27:36.960 : Chapter 24

Просьба к переливающим на другие сайты, в оформлении указывайте пожалуйста авторство группы R.G. HD-Films piratbit.org



Скачать Босс-молокосос через торрент http://s019.radikal.ru/i605/1707/eb/27791a90f30c.jpg Скачать, смотреть онлайн Босс-молокосос бесплантно в хорошем качестве Описание: Эта актуальная во все времена история для взрослых и детей рассказывается от лица семилетнего брата новорожденного — фантазера ... 10 10 1
Торрент: Зарегистрирован [2021-11-11 13:59] · скачан: 13 раз
Статус: √ проверено
Размер: 3.48 GB
Как cкачать? Как скачать Босс-молокосос через торрент | UTorrent

% Раздел Тема Автор DL S | L
Мультфильмы (48-60 fps) [ 3.83 GB ] Босс-молокосос 2 / The Boss Baby: Family Business [2021 Мультфильм WEB-DLRip 720p / 60 FPS ] от R.G. HD-Films slaventi-69 Скачать
15 | 0

28-11-2019 20:33  

Отключить всю рекламу на сайте

    Дорогой пользователь! Огромная просьба, поблагодарите релизера, оцените раздачу и оставьте свои комментарий, если Вы скачали Босс-молокосос через торрент бесплатно!
    Комментировать посты могут только пользователи прошедшие не сложную регистрацию
    Показать сообщения:    

    Босс-молокосос через торрент
    Скачать бесплатно Босс-молокосос
    Босс-молокосос скачать торрент
    Босс-молокосос смотреть онлайн
    Cкачать фильм Босс-молокосос бесплатно
    Босс-молокосос скачать торрент в хорошем качестве
    Босс-молокосос смотреть онлайн бесплатно в хорошем качестве


    Вы не можете начинать темы
    Вы не можете отвечать на сообщения
    Вы не можете редактировать свои сообщения
    Вы не можете удалять свои сообщения
    Вы не можете голосовать в опросах
    Вы не можете прикреплять файлы к сообщениям
    Вы можете скачивать файлы