Присоединяйтесь к нам в Telegram!, здесь всегда актуальный адрес сайта, оперативная поддержка и многое другое!!

>

5.9

iTunes

7.4

iTunes

9.4

1 сезон

1

7.4

2 сезон

7.2

iTunes

7.3

1 сезон

13

6.1

iTunes

8.3

Пиратка

30

ULTIMATE

pack

9.9

Лицензия

ВАЖНО

ИГРА 18+

pack

7.3

RePack

MK11

7.7

RePack

jed

7.8

RePack

fifa19

8.5

RePack

RDR2

RePack

NEED FOR SPEED™ PAYBACK

5 сезон

9 сезон

Бесстыжие 9 сезон

Все сериалы

все сериалы на PB.wtf

RePack

FAR CRY 5

Anonymous, доброй ночи, мы катастрофически не успеваем собрать деньги на оплату серверов, помогите нам пожалуйста 5,10,15р., для нас важна любая помощь . В качестве благодарности мы отключим Вам всю рекламу на сайте (укажите свой ник в строку Ваше имя)!

×
  
Magnet ссылка

The Rolling Stones - Rock and Roll Circus (1996) + Bonus Disk piratbit.org

Смотреть онлайн The Rolling Stones - Rock and Roll Circus | Скачать    Ребята, помогите собрать деньги на оплату серверов!!!

12-11-2021 00:23 The Rolling Stones - Rock and Roll Circus Скачать торрент  

The Rolling Stones - Rock and Roll Circus (1996) + Bonus Disk

Год выпуска: 2019
Страна: UK
Жанр: Концертное видео, Рок-н-ролл, Блюз-рок, Хард-рок, Рок
Продолжительность: 01:05:44

Описание:
Первоначально снятый в декабре 1968 года, "Цирк рок-н-ролла" изначально предназначался для выпуска в качестве специального телевизионного выпуска. Специальный выпуск был снят в течение двух ночей и включал не только The Rolling Stones, но и The Who, Джетро Талла (с будущим гитаристом Black Sabbath Томми Айомми, заменившим недавно ушедшего Мика Абрахамса), Марианну Фейтфул и джем всех звезд с участием Джона Леннона, Эрика Клэптона, Кита Ричардса и Митча Миктелла. К сожалению, это также ознаменовало окончательное появление основателя Stones и оригинального путеводного света Брайана Джонса, который должен был умереть в течение шести месяцев после съемок специального выпуска. — Брайан Вашингтон
<Sargebri@att.net >
The Rolling Stones - Rock and Roll Circus (1996) (Remastered 2019) + Bonus Disk 1080p h264 Eng Ac3 2.0 Multisub-MIRCrew
В этом шоу на цирковой арене выступили сами The Rolling Stones и известнейшие рок-музыканты: Jethro Tull, The Who, Taj Mahal, Марианна Фейтфулл, Йоко Оно (с The Dirty Mac) и супергруппа The Dirty Mac, в которую вошли Джон Леннон, Эрик Клэптон, Митч Митчелл (ударник группы Джимми Хендрикса) и Кит Ричардс — гитарист The Rolling Stones. Также присутствовали традиционные цирковые номера и цирковая музыка в исполнении оркестра.

Инициатором проекта был Мик Джаггер, попросивший режиссёра Майкла Линдсей-Хогга (англ. Michael Lindsay-Hogg), снявшего два промовидеоролика для The Rolling Stones, сделать для них полнометражное телевизионное шоу. По словам Линдсей-Хогга, идея соединения музыки с цирком пришла во время поиска идей для шоу, когда он нарисовал круг на бумаге и сработала свободная ассоциация.

Шоу началось около 2 часов дня 11 декабря 1968 года. Технические работы на сцене между выступлениями занимали больше времени, чем планировалось, были проблемы с видеокамерами, и в итоге шоу затянулось на ночь и последние выступления состоялись около 5 утра следующего дня. К тому времени и Rolling Stones, игравшие в самом конце шоу, и публика очень устали, что хорошо видно в фильме.

Это было последним выступлением Брайана Джонса в составе The Rolling Stones и единственная видеозапись будущего гитариста Black Sabbath Тони Айомми в составе Jethro Tull. Айомми был участником группы на протяжении только нескольких недель.

Фильм не был выпущен на протяжении почти 30 лет. Rolling Stones говорили, что релиз задержан из-за их не соответствующего стандартам выступления, так как они выступали рано утром и были сильно усталыми. Другие источники утверждают, что настоящей причиной является слишком хорошее выступление группы The Who, только что вернувшейся из турне. Rolling Stones не давали концертов на протяжении некоторого времени и выглядели на сцене, по сравнению с The Who, гораздо хуже.

Выпуск на CD и VHS состоялся в 1996 году. В релиз вошли музыкальные номера, их объявления, и дружеский разговор Мика Джаггера с Джоном Ленноном.

Ремастеринг на DVD появился в 2004 году со звуком в формате Dolby Surround, и дополнительным материалом (ранее считавшиеся «потерянными» записи выступлений, интервью с Питом Таунсендом и три аудиокомментария).

скриншот   скриншот   скриншот   скриншот  
Список номеров и композиций
01. Открытие, Мик Джаггер объявляет Rock and Roll Circus (0:25)
02. «Entry of the Gladiators» (Julius Fucik) — оркестр (0:54)
03. Мик Джаггер объявляет Jethro Tull (0:11)
04. «A Song for Jeffrey» (Ian Anderson) — Jethro Tull (3:25)
05. Кит Ричардс объявляет The Who (0:07)
06. «A Quick One While He’s Away» (Pete Townshend) — The Who (7:32)
07. «Over the Waves» (Juventino Rosas) — оркестр (0:45)
08. «Ain’t That a Lot of Love» (Willia Dean Parker/Homer Banks) — Taj Mahal (3:48)
09. Чарли Уоттс объявляет Марианну Фэйтфул (0:05)
10. «Something Better» (Barry Mann/Gerry Goffin) — Marianne Faithfull (2:31)
11. Мик Джаггер и Джон Леннон объявляют The Dirty Mac (1:05)
12. «Yer Blues» (John Lennon/Paul McCartney) — The Dirty Mac (4:26)
13. «Whole Lotta Yoko» (Йоко Оно) — Йоко Оно, Ivry Gitlis, The Dirty Mac (4:48)
14. Джон Леннон объявляет The Rolling Stones / «Jumpin’ Jack Flash» (Mick Jagger/Keith Richards) — The Rolling Stones (3:35)
15. «Parachute Woman» (Mick Jagger/Keith Richards) — The Rolling Stones (2:58)
16. «No Expectations» (Mick Jagger/Keith Richards) — The Rolling Stones (4:13)
17. «You Can’t Always Get What You Want» (Mick Jagger/Keith Richards) — The Rolling Stones(4:24)
18. «Sympathy for the Devil» (Mick Jagger/Keith Richards) — The Rolling Stones (8:48)
19. «Salt of the Earth» (Mick Jagger/Keith Richards) — The Rolling Stones (4:57)
Качество: HDRip
Формат: MKV
Видео кодек: AVC
Аудио кодек:AC3
Видео: MPEG4 AVC, 2 600x1920 (16:9) , 23,976 fps, 2600kbps ; 0.053bit/pixel
Аудио#1: AAC 48,0 kHz, 2 ch(L R), 192 kbps (England )
Аудио#2: AAC 48,0 kHz, 2 ch(L R), 192 kbps (Italy)
Общее
Уникальный идентификатор : 36953286688465204781591237007531101376 (0x1BCCF1B301DC4AA973834C2E8888CCC0)
Полное имя : C:\Downloads\The Rolling Stones - Rock and Roll Circus (1996) {2019}\Concert 2.mkv
Формат : Matroska
Версия формата : Version 2
Размер файла : 1,25 Гбайт
Продолжительность : 1 ч. 5 м.
Общий поток : 2 724 Кбит/сек
Дата кодирования : UTC 2021-10-24T11:12:45Z
Программа кодирования : HandBrake 0.10.5 2016021100
Библиотека кодирования : Lavf55.12.0

Видео
Идентификатор : 1
Формат : AVC
Формат/Информация : Advanced Video Codec
Профиль формата : Main@L4.1
Настройки формата : CABAC / 4 Ref Frames
Параметр CABAC формата : Да
Параметр RefFrames формата : 4 кадра
Идентификатор кодека : V_MPEG4/ISO/AVC
Продолжительность : 1 ч. 5 м.
Битрейт : 2 600 Кбит/сек
Ширина : 1 920 пикселей
Высота : 1 072 пикселя
Соотношение сторон : 16:9
Режим частоты кадров : Постоянный
Частота кадров : 23,976 (24000/1001) кадра/сек
Цветовое пространство : YUV
Субдискретизация насыщенности : 4:2:0
Битовая глубина : 8 бит
Тип развёртки : Прогрессивная
Бит/(Пиксели*Кадры) : 0.053
Размер потока : 1,14 Гбайт (91%)
Библиотека кодирования : x264 core 142 r2479 dd79a61
Настройки программы : cabac=1 / ref=1 / deblock=1:0:0 / analyse=0x1:0x111 / me=hex / subme=2 / psy=1 / psy_rd=1.00:0.00 / mixed_ref=0 / me_range=16 / chroma_me=1 / trellis=0 / 8x8dct=0 / cqm=0 / deadzone=21,11 / fast_pskip=1 / chroma_qp_offset=0 / threads=9 / lookahead_threads=3 / sliced_threads=0 / nr=0 / decimate=1 / interlaced=0 / bluray_compat=0 / constrained_intra=0 / bframes=3 / b_pyramid=2 / b_adapt=1 / b_bias=0 / direct=1 / weightb=1 / open_gop=0 / weightp=1 / keyint=240 / keyint_min=24 / scenecut=40 / intra_refresh=0 / rc_lookahead=10 / rc=abr / mbtree=1 / bitrate=2600 / ratetol=1.0 / qcomp=0.60 / qpmin=0 / qpmax=69 / qpstep=4 / vbv_maxrate=50000 / vbv_bufsize=62500 / nal_hrd=none / filler=0 / ip_ratio=1.40 / aq=1:1.00
Default : Да
Forced : Нет
Цветовой диапазон : Limited
Основные цвета : BT.709
Характеристики трансфера : BT.709
Коэффициенты матрицы : BT.709

Аудио
Идентификатор : 2
Формат : AC-3
Формат/Информация : Audio Coding 3
Коммерческое название : Dolby Digital
Идентификатор кодека : A_AC3
Продолжительность : 1 ч. 5 м.
Вид битрейта : Постоянный
Битрейт : 192 Кбит/сек
Каналы : 2 канала
Channel layout : L R
Частота : 48,0 КГц
Частота кадров : 31,250 кадров/сек (1536 SPF)
Метод сжатия : С потерями
Задержка видео : -5 мс.
Размер потока : 90,3 Мбайт (7%)
Заголовок : Stereo
Service kind : Complete Main
Default : Да
Forced : Нет
piratbit.org



28-11-2019 20:33  

Отключить всю рекламу на сайте

    Дорогой пользователь! Огромная просьба, поблагодарите релизера, оцените раздачу и оставьте свои комментарий, если Вы скачали The Rolling Stones - Rock and Roll Circus через торрент бесплатно!
    Комментировать посты могут только пользователи прошедшие не сложную регистрацию
    Показать сообщения:    

    The Rolling Stones - Rock and Roll Circus через торрент
    Скачать бесплатно The Rolling Stones - Rock and Roll Circus
    The Rolling Stones - Rock and Roll Circus скачать торрент
    The Rolling Stones - Rock and Roll Circus смотреть онлайн
    Cкачать фильм The Rolling Stones - Rock and Roll Circus бесплатно
    The Rolling Stones - Rock and Roll Circus скачать торрент в хорошем качестве
    The Rolling Stones - Rock and Roll Circus смотреть онлайн бесплатно в хорошем качестве


    Вы не можете начинать темы
    Вы не можете отвечать на сообщения
    Вы не можете редактировать свои сообщения
    Вы не можете удалять свои сообщения
    Вы не можете голосовать в опросах
    Вы не можете прикреплять файлы к сообщениям
    Вы можете скачивать файлы