Присоединяйтесь к нам в Telegram!, здесь всегда актуальный адрес сайта, оперативная поддержка и многое другое!!

>

5.9

iTunes

7.4

iTunes

9.4

1 сезон

1

7.4

2 сезон

7.2

iTunes

7.3

1 сезон

13

6.1

iTunes

8.3

Пиратка

30

ULTIMATE

pack

9.9

Лицензия

ВАЖНО

ИГРА 18+

pack

7.3

RePack

MK11

7.7

RePack

jed

7.8

RePack

fifa19

8.5

RePack

RDR2

RePack

NEED FOR SPEED™ PAYBACK

5 сезон

9 сезон

Бесстыжие 9 сезон

Все сериалы

все сериалы на PB.wtf

RePack

FAR CRY 5

Anonymous, доброй ночи, мы катастрофически не успеваем собрать деньги на оплату серверов, помогите нам пожалуйста 5,10,15р., для нас важна любая помощь . В качестве благодарности мы отключим Вам всю рекламу на сайте (укажите свой ник в строку Ваше имя)!

×
  
Magnet ссылка

Босс-молокосос 2 / The Boss Baby: Family Business (Том МакГрат) [2021 г., Мультфильм, комедия, приключения, семейный, WEB-DLRip 720p / 60 FPS, Дубляж] от R.G. HD-Films piratbit.org

Босс-молокосос 2 через торрент piratbit.org

Раздают: 11 [ 0 KB/s ]
Размер: 3.83 GB | Добавлен: 22 д. назад | Торрент скачан:90 раз
Смотреть онлайн Босс-молокосос 2 | Скачать    Ребята, помогите собрать деньги на оплату серверов!!!

12-11-2021 10:08 Босс-молокосос 2 Скачать торрент  

Босс-молокосос 2 / The Boss Baby: Family Business
Год выпуска: 2021
Страна: США
Жанр: Мультфильм, комедия, приключения, семейный
Продолжительность: 01:47:09
Перевод: Дубляж
Субтитры: Русские (Full), английские

Режиссер: Том МакГрат

Бюджет: $82 000 000
Премьера в мире: 1 июля 2021

rating

В ролях: Алек Болдуин, Эми Седарис, Джеймс Марсден, Джефф Голдблюм, Лиза Кудроу, Ева Лонгория, Джеймс МакГрат, Ариана Гринблатт, Джимми Киммел

Описание: Братья Темплтон выросли и отдалились друг от друга. Но все меняется с появлением нового босса-молокососа с суперсовременным подходом, который воссоединяет семью и вдохновляет героев на новые бизнес-свершения.


Качество: WEB-DLRip 720p / 60 FPS
Формат: MKV
Видео кодек: H.264
Аудио кодек: AC3
Видео: x264, 1280 x 536 ( 2,40:1 ), 4726 kbps, 60,000 fps, ( 0.115 bpp)
Аудио#1: Русский, AC-3, 48.0 KHz, 6 ch, 384 Kbps Dub ( Пифагор )
Релиз от: Автор рипа: slaventi-69
Общее
Уникальный идентификатор : 335671839319990431711546398876718236134 (0xFC880B705EE72A7C1BC2FAB1549281E6)
Полное имя : F:\60 FPS\The.Boss.Baby_Family.Business.(2021).WEB-DLRip.720p.(60 Fps).mkv
Формат : Matroska
Версия формата : Version 4
Размер файла : 3,83 Гбайт
Продолжительность : 1 ч. 47 м.
Общий поток : 5115 Кбит/сек
Название фильма : Босс-молокосос 2 / The Boss Baby: Family Business (2021) WEB-DLRip 720p (60 Fps)
Дата кодирования : UTC 2021-11-12 09:42:16
Программа кодирования : mkvmerge v56.1.0 ('My Friend') 32-bit
Библиотека кодирования : libebml v1.4.2 + libmatroska v1.6.4

Видео
Идентификатор : 1
Формат : AVC
Формат/Информация : Advanced Video Codec
Профиль формата : High@L4.1
Настройки формата : CABAC / 8 Ref Frames
Параметр CABAC формата : Да
Параметр RefFrames формата : 8 кадров
Идентификатор кодека : V_MPEG4/ISO/AVC
Продолжительность : 1 ч. 47 м.
Битрейт : 4726 Кбит/сек
Ширина : 1280 пикселей
Высота : 536 пикселей
Соотношение сторон : 2,40:1
Режим частоты кадров : Постоянный
Частота кадров : 60,000 кадров/сек
Цветовое пространство : YUV
Субдискретизация насыщенности : 4:2:0
Битовая глубина : 8 бит
Тип развёртки : Прогрессивная
Бит/(Пиксели*Кадры) : 0.115
Размер потока : 3,54 Гбайт (92%)
Заголовок : slaventi-69 ( R.G. HD-Films | 60 fps )
Библиотека кодирования : x264 core 130 r2273 b3065e6
Настройки программы : cabac=1 / ref=9 / deblock=1:-3:-3 / analyse=0x3:0x133 / me=umh / subme=9 / psy=1 / psy_rd=1.00:0.00 / mixed_ref=1 / me_range=28 / chroma_me=1 / trellis=2 / 8x8dct=1 / cqm=0 / deadzone=21,11 / fast_pskip=0 / chroma_qp_offset=-2 / threads=10 / lookahead_threads=4 / sliced_threads=0 / nr=0 / decimate=1 / interlaced=0 / bluray_compat=0 / constrained_intra=0 / bframes=5 / b_pyramid=1 / b_adapt=2 / b_bias=0 / direct=2 / weightb=1 / open_gop=0 / weightp=2 / keyint=600 / keyint_min=23 / scenecut=40 / intra_refresh=0 / rc=crf / mbtree=0 / crf=17.4 / qcomp=0.60 / qpmin=0 / qpmax=69 / qpstep=4 / ip_ratio=1.40 / pb_ratio=1.30 / aq=1:1.00
Язык : English
Default : Да
Forced : Нет

Аудио
Идентификатор : 2
Формат : AC-3
Формат/Информация : Audio Coding 3
Коммерческое название : Dolby Digital
Идентификатор кодека : A_AC3
Продолжительность : 1 ч. 47 м.
Вид битрейта : Постоянный
Битрейт : 384 Кбит/сек
Каналы : 6 каналов
Channel layout : L R C LFE Ls Rs
Частота : 48,0 КГц
Частота кадров : 31,250 кадров/сек (1536 SPF)
Битовая глубина : 16 бит
Метод сжатия : С потерями
Размер потока : 294 Мбайт (8%)
Заголовок : Dub ( Пифагор )
Язык : Russian
ServiceKind/String : Complete Main
Default : Да
Forced : Нет

Текст #1
Идентификатор : 3
Формат : UTF-8
Идентификатор кодека : S_TEXT/UTF8
Идентификатор кодека/Информация : UTF-8 Plain Text
Продолжительность : 1 ч. 38 м.
Битрейт : 131 бит/сек
ElementCount : 1815
Размер потока : 94,9 Кбайт (0%)
Заголовок : Full
Язык : Russian
Default : Нет
Forced : Нет

Текст #2
Идентификатор : 4
Формат : UTF-8
Идентификатор кодека : S_TEXT/UTF8
Идентификатор кодека/Информация : UTF-8 Plain Text
Продолжительность : 1 ч. 45 м.
Битрейт : 83 бит/сек
ElementCount : 2462
Размер потока : 65,1 Кбайт (0%)
Язык : English
Default : Нет
Forced : Нет

Меню
00:00:00.000 : Chapter 01
00:04:17.318 : Chapter 02
00:09:49.608 : Chapter 03
00:13:42.299 : Chapter 04
00:19:50.751 : Chapter 05
00:24:54.054 : Chapter 06
00:29:11.060 : Chapter 07
00:34:20.953 : Chapter 08
00:38:08.180 : Chapter 09
00:44:35.234 : Chapter 10
00:51:24.059 : Chapter 11
01:00:46.788 : Chapter 12
01:04:53.409 : Chapter 13
01:08:07.144 : Chapter 14
01:13:26.338 : Chapter 15
01:18:37.107 : Chapter 16
01:22:43.353 : Chapter 17
01:27:12.372 : Chapter 18
01:35:05.636 : Chapter 19
01:38:12.656 : Chapter 20

Просьба к переливающим на другие сайты, в оформлении указывайте пожалуйста авторство группы R.G. HD-Films piratbit.org



Скачать Босс-молокосос 2 через торрент https://i3.imageban.ru/out/2021/10/24/e370cf1186c6a4a33d23eeae9d4e2bfb.jpg Скачать, смотреть онлайн Босс-молокосос 2 бесплантно в хорошем качестве Описание: Братья Темплтон выросли и отдалились друг от друга. Но все меняется с появлением нового босса-молокососа с суперсовременным ... 10 10 9
Торрент: Зарегистрирован [2021-11-12 10:08] · скачан: 90 раз
Статус: √ проверено
Размер: 3.83 GB
Как cкачать? Как скачать Босс-молокосос 2 через торрент | UTorrent

28-11-2019 20:33  

Отключить всю рекламу на сайте

    Дорогой пользователь! Огромная просьба, поблагодарите релизера, оцените раздачу и оставьте свои комментарий, если Вы скачали Босс-молокосос 2 через торрент бесплатно!
    Комментировать посты могут только пользователи прошедшие не сложную регистрацию
    Показать сообщения:    

    Босс-молокосос 2 через торрент
    Скачать бесплатно Босс-молокосос 2
    Босс-молокосос 2 скачать торрент
    Босс-молокосос 2 смотреть онлайн
    Cкачать фильм Босс-молокосос 2 бесплатно
    Босс-молокосос 2 скачать торрент в хорошем качестве
    Босс-молокосос 2 смотреть онлайн бесплатно в хорошем качестве


    Вы не можете начинать темы
    Вы не можете отвечать на сообщения
    Вы не можете редактировать свои сообщения
    Вы не можете удалять свои сообщения
    Вы не можете голосовать в опросах
    Вы не можете прикреплять файлы к сообщениям
    Вы можете скачивать файлы