Присоединяйтесь к нам в Telegram!, здесь всегда актуальный адрес сайта, оперативная поддержка и многое другое!!

>

5.9

iTunes

7.4

iTunes

9.4

1 сезон

1

7.4

2 сезон

7.2

iTunes

7.3

1 сезон

13

6.1

iTunes

8.3

Пиратка

30

ULTIMATE

pack

9.9

Лицензия

ВАЖНО

ИГРА 18+

pack

7.3

RePack

MK11

7.7

RePack

jed

7.8

RePack

fifa19

8.5

RePack

RDR2

RePack

NEED FOR SPEED™ PAYBACK

5 сезон

9 сезон

Бесстыжие 9 сезон

Все сериалы

все сериалы на PB.wtf

RePack

FAR CRY 5

Anonymous, доброй ночи, мы катастрофически не успеваем собрать деньги на оплату серверов, помогите нам пожалуйста 5,10,15р., для нас важна любая помощь . В качестве благодарности мы отключим Вам всю рекламу на сайте (укажите свой ник в строку Ваше имя)!

×
  
Magnet ссылка

Удивительные животные / Animal / Сезон: 1 / Серии: 1-4 из 4 (Марта Холмс) [2021, документальный, WEB-DL 1080p] [MVO] (VSI Moscow) piratbit.org

Удивительные животные через торрент piratbit.org

Раздают: 2 [ 91 KB/s ]
Размер: 10.18 GB | Добавлен: 21 д. назад | Торрент скачан:22 раза
Смотреть онлайн Удивительные животные | Скачать    Ребята, помогите собрать деньги на оплату серверов!!!

13-11-2021 20:21 Удивительные животные Скачать торрент  

Удивительные животные / Animal
Год выпуска: 2021
Страна: США
Жанр: документальный
Продолжительность: 00:50:00

Перевод: Профессиональный (многоголосый закадровый) | VSI Moscow по заказу Netflix

Режиссёр: Марта Холмс / Martha Holmes
В ролях: Брайан Крэнстон, Рашида Джонс, Ребел Уилсон, Педро Паскаль, Энди Серкис, Энтони Маки, Дэвид Харбор, Узо Адуба

Описание: Этот сериал погрузит вас в мир самых поразительных существ планеты и осветит невиданные ранее грани их жизни — от нежности до жестокости.

rating

Качество: WEB-DL 1080p
Контейнер: MKV
Видео: AVC, 1920x1080 (16:9), 23.976 fps, ~6014 kbps
Аудио №1: E-AC3, 48 kHz, 6 ch, 640 kbps
Аудио №2: E-AC3 JOC, 48 kHz, 6 ch, 768 kbps
Субтитры: Русские (Forced, Full), немецкие, английские (SDH), испанские, французские, иврит, итальянские, португальские, румынские, украинские
Формат субтитров: softsub (SRT)
01. Большие кошки / Big Cats
Раньше считалось, что величественные, сильные и смертельно опасные большие кошки предпочитают уединение. Но сейчас мы узнаем, что они прекрасно умеют действовать сообща.

02. Собаки / Dogs
И лисы в городе и волки в тундре — все представители семейства псовых обладают отлично развитыми органами чувств, силой, ловкостью и абсолютным бесстрашием.

03. Сумчатые / Marsupials
Дело не только в сумках. Эти эксцентричные млекопитающие полны сюрпризов — от зрелищного выяснения отношений кенгуру до громогласного брачного зова коал.

04. Головоногие / Octopus
Головоногие, например, каракатица и гигантский осьминог, выживают в переменчивых морях и океанах благодаря своему потрясающему интеллекту.
General
Unique ID : 164018019231868311976443207694901209469 (0x7B64B8B1FB1F1AA0D9EBC15E7DEE697D)
Complete name : Animal.S01E01.Big.Cats.1080p.NF.WEB-DL.DDP5.1.H.264-EniaHD.mkv
Format : Matroska
Format version : Version 4
File size : 2.59 GiB
Duration : 49 min 55 s
Overall bit rate mode : Variable
Overall bit rate : 7 425 kb/s
Movie name : Animal S01E01 [Big Cats] - EniaHD
Writing application : mkvmerge v57.0.0 ('Till The End') 64-bit
Writing library : libebml v1.4.2 + libmatroska v1.6.4

Video
ID : 1
Format : AVC
Format/Info : Advanced Video Codec
Format profile : Main@L4
Format settings : CABAC / 3 Ref Frames
Format settings, CABAC : Yes
Format settings, Reference fra : 3 frames
Codec ID : V_MPEG4/ISO/AVC
Duration : 49 min 55 s
Bit rate mode : Variable
Bit rate : 6 014 kb/s
Nominal bit rate : 7 500 kb/s
Maximum bit rate : 11.2 Mb/s
Width : 1 920 pixels
Height : 1 080 pixels
Display aspect ratio : 16:9
Frame rate mode : Constant
Frame rate : 23.976 (24000/1001) FPS
Color space : YUV
Chroma subsampling : 4:2:0
Bit depth : 8 bits
Scan type : Progressive
Bits/(Pixel*Frame) : 0.121
Stream size : 2.10 GiB (81%)
Writing library : x264 core 148 r2724 dbe0335
Encoding settings : cabac=1 / ref=3 / deblock=1:0:0 / analyse=0x1:0x111 / me=umh / subme=10 / psy=1 / psy_rd=1.00:0.00 / mixed_ref=1 / me_range=24 / chroma_me=1 / trellis=2 / 8x8dct=0 / cqm=0 / deadzone=21,11 / fast_pskip=1 / chroma_qp_offset=-2 / threads=8 / lookahead_threads=1 / sliced_threads=0 / nr=0 / decimate=1 / interlaced=0 / bluray_compat=0 / stitchable=1 / constrained_intra=0 / bframes=2 / b_pyramid=0 / b_adapt=2 / b_bias=0 / direct=3 / weightb=1 / open_gop=0 / weightp=2 / keyint=250 / keyint_min=23 / scenecut=0 / intra_refresh=0 / rc_lookahead=48 / rc=2pass / mbtree=1 / bitrate=7500 / ratetol=1.0 / qcomp=0.50 / qpmin=6 / qpmax=51 / qpstep=4 / cplxblur=20.0 / qblur=0.5 / vbv_maxrate=11250 / vbv_bufsize=15000 / nal_hrd=vbr / filler=0 / ip_ratio=1.40 / aq=1:1.00
Default : Yes
Forced : No

Audio #1
ID : 2
Format : E-AC-3
Format/Info : Enhanced AC-3
Commercial name : Dolby Digital Plus
Codec ID : A_EAC3
Duration : 49 min 55 s
Bit rate mode : Constant
Bit rate : 640 kb/s
Channel(s) : 6 channels
Channel layout : L R C LFE Ls Rs
Sampling rate : 48.0 kHz
Frame rate : 31.250 FPS (1536 SPF)
Compression mode : Lossy
Stream size : 229 MiB (9%)
Language : Russian
Service kind : Complete Main
Default : Yes
Forced : No

Audio #2
ID : 3
Format : E-AC-3 JOC
Format/Info : Enhanced AC-3 with Joint Object Coding
Commercial name : Dolby Digital Plus with Dolby Atmos
Codec ID : A_EAC3
Duration : 49 min 55 s
Bit rate mode : Constant
Bit rate : 768 kb/s
Channel(s) : 6 channels
Channel layout : L R C LFE Ls Rs
Sampling rate : 48.0 kHz
Frame rate : 31.250 FPS (1536 SPF)
Bit depth : 32 bits
Compression mode : Lossy
Stream size : 274 MiB (10%)
Language : English
Service kind : Complete Main
Default : No
Forced : No
Complexity index : 16
Number of dynamic objects : 15
Bed channel count : 1 channel
Bed channel configuration : LFE

Text #1
ID : 4
Format : UTF-8
Codec ID : S_TEXT/UTF8
Codec ID/Info : UTF-8 Plain Text
Duration : 48 min 31 s
Bit rate : 0 b/s
Count of elements : 10
Stream size : 348 Bytes (0%)
Title : Forced
Language : Russian
Default : Yes
Forced : No

Text #2
ID : 5
Format : UTF-8
Codec ID : S_TEXT/UTF8
Codec ID/Info : UTF-8 Plain Text
Duration : 48 min 31 s
Bit rate : 65 b/s
Count of elements : 311
Stream size : 23.3 KiB (0%)
Language : Russian
Default : No
Forced : No

Text #3
ID : 6
Format : UTF-8
Codec ID : S_TEXT/UTF8
Codec ID/Info : UTF-8 Plain Text
Duration : 48 min 29 s
Bit rate : 44 b/s
Count of elements : 315
Stream size : 15.6 KiB (0%)
Language : German
Default : No
Forced : No

Text #4
ID : 7
Format : UTF-8
Codec ID : S_TEXT/UTF8
Codec ID/Info : UTF-8 Plain Text
Duration : 47 min 43 s
Bit rate : 45 b/s
Count of elements : 403
Stream size : 15.9 KiB (0%)
Title : SDH
Language : English
Default : No
Forced : No

Text #5
ID : 8
Format : UTF-8
Codec ID : S_TEXT/UTF8
Codec ID/Info : UTF-8 Plain Text
Duration : 48 min 31 s
Bit rate : 45 b/s
Count of elements : 324
Stream size : 16.3 KiB (0%)
Title : European
Language : Spanish
Default : No
Forced : No

Text #6
ID : 9
Format : UTF-8
Codec ID : S_TEXT/UTF8
Codec ID/Info : UTF-8 Plain Text
Duration : 48 min 32 s
Bit rate : 44 b/s
Count of elements : 322
Stream size : 15.7 KiB (0%)
Language : French
Default : No
Forced : No

Text #7
ID : 10
Format : UTF-8
Codec ID : S_TEXT/UTF8
Codec ID/Info : UTF-8 Plain Text
Duration : 47 min 32 s
Bit rate : 56 b/s
Count of elements : 317
Stream size : 19.7 KiB (0%)
Language : Hebrew
Default : No
Forced : No

Text #8
ID : 11
Format : UTF-8
Codec ID : S_TEXT/UTF8
Codec ID/Info : UTF-8 Plain Text
Duration : 48 min 32 s
Bit rate : 44 b/s
Count of elements : 311
Stream size : 15.9 KiB (0%)
Language : Italian
Default : No
Forced : No

Text #9
ID : 12
Format : UTF-8
Codec ID : S_TEXT/UTF8
Codec ID/Info : UTF-8 Plain Text
Duration : 48 min 29 s
Bit rate : 44 b/s
Count of elements : 317
Stream size : 15.9 KiB (0%)
Title : Brazilian
Language : Portuguese
Default : No
Forced : No

Text #10
ID : 13
Format : UTF-8
Codec ID : S_TEXT/UTF8
Codec ID/Info : UTF-8 Plain Text
Duration : 48 min 32 s
Bit rate : 48 b/s
Count of elements : 309
Stream size : 17.1 KiB (0%)
Language : Romanian
Default : No
Forced : No

Text #11
ID : 14
Format : UTF-8
Codec ID : S_TEXT/UTF8
Codec ID/Info : UTF-8 Plain Text
Duration : 48 min 32 s
Bit rate : 65 b/s
Count of elements : 316
Stream size : 23.3 KiB (0%)
Language : Ukrainian
Default : No
Forced : No
скриншот  скриншот  скриншот  
piratbit.org



Скачать Удивительные животные через торрент https://dnm.nflximg.net/api/v6/evlCitJPPCVCry0BZlEFb5-QjKc/AAAABY5Hb16CSyNINMQH9IRN20QOSpvffDU2WzGE_Fh3Ug4aAO62A60pVc2dcokuK5lYPRL2BnnVzsJu03pp-vuAENlxpiItHWvWeNoP7r6P2wS8NBwkvqa9SBTtnd1xDA.jpg Скачать, смотреть онлайн Удивительные животные бесплантно в хорошем качестве Описание: Этот сериал погрузит вас в мир самых поразительных существ планеты и осветит невиданные ранее грани их жизни — от нежности до ... 10 10 2
Торрент: Зарегистрирован [2021-11-13 20:21] · скачан: 22 раз
Статус: √ проверено
Размер: 10.18 GB
Как cкачать? Как скачать Удивительные животные через торрент | UTorrent

28-11-2019 20:33  

Отключить всю рекламу на сайте

    Дорогой пользователь! Огромная просьба, поблагодарите релизера, оцените раздачу и оставьте свои комментарий, если Вы скачали Удивительные животные через торрент бесплатно!
    Комментировать посты могут только пользователи прошедшие не сложную регистрацию
    Показать сообщения:    

    Удивительные животные через торрент
    Скачать бесплатно Удивительные животные
    Удивительные животные скачать торрент
    Удивительные животные смотреть онлайн
    Cкачать фильм Удивительные животные бесплатно
    Удивительные животные скачать торрент в хорошем качестве
    Удивительные животные смотреть онлайн бесплатно в хорошем качестве


    Вы не можете начинать темы
    Вы не можете отвечать на сообщения
    Вы не можете редактировать свои сообщения
    Вы не можете удалять свои сообщения
    Вы не можете голосовать в опросах
    Вы не можете прикреплять файлы к сообщениям
    Вы можете скачивать файлы