Присоединяйтесь к нам в Telegram!, здесь всегда актуальный адрес сайта, оперативная поддержка и многое другое!!

>

5.9

iTunes

7.4

iTunes

9.4

1 сезон

1

7.4

2 сезон

7.2

iTunes

7.3

1 сезон

13

6.1

iTunes

8.3

GOG

30

ULTIMATE

pack

9.9

Лицензия

ВАЖНО

ИГРА 18+

pack

7.3

RePack

MK11

7.7

RePack

jed

7.8

RePack

fifa19

8.5

RePack

RDR2

RePack

NEED FOR SPEED™ PAYBACK

5 сезон

9 сезон

Бесстыжие 9 сезон

Все сериалы

все сериалы на PB.wtf

RePack

FAR CRY 5

Anonymous, добрый день, мы катастрофически не успеваем собрать деньги на оплату серверов, помогите нам пожалуйста 5,10,15р., для нас важна любая помощь . В качестве благодарности мы отключим Вам всю рекламу на сайте (укажите свой ник в строку Ваше имя)!

×
  
Magnet ссылка

Беспринципные / Сезон: 2 / Серии: 1-3 из 8 (Роман Прыгунов) [2021, Комедия, WEBRip-AVC, (Версия 18+)] piratbit.org

Беспринципные через торрент piratbit.org

Раздают: 9 [ 173 KB/s ] Качают: 2 [ 0 KB/s ]
Размер: 3.66 GB | Добавлен: 7 д. назад | Торрент скачан:48 раз
Смотреть онлайн Беспринципные | Скачать    Ребята, помогите собрать деньги на оплату серверов!!!

18-11-2021 00:56 Беспринципные Скачать торрент  

Беспринципные
Год выпуска: 2021
Страна: Россия
Студия: Медиаслово
Жанр: Комедия
Продолжительность: ~ 00:55:00 серия
Субтитры: Русские

Режиссер: Роман Прыгунов

rating

В ролях: Павел Деревянко, Ингеборга Дапкунайте, Максим Виторган, Оксана Акиньшина, Николай Фоменко, Аглая Тарасова, Павел Табаков, Юрий Колокольников, Надежда Михалкова, Кристина Бабушкина, Александр Семёнов (III), Олег Евтеев, Елизавета Лотова, Игорь Кудряшов, Ольга Король, Антон Никушин, Александр Азыранкулов, Александр Лавров (II), Александра Бурьянова, Сергей Трёкин, Сергей Ершов, Марк Парасюк, Олег Суховерхов, Александр Гундарев, Матвей Семёнов, Александр Волков (III), Вадим Руденко, Александр Трубин, Кристина Черданцева, Владимир Брест, Сергей Назаренко, Максим Демченко (II), Аслан Томаев, Иван Ратников, Мария Чувилина, Антон Ушаков, Алексей Соколков, Кирилл Попов, Елена Пономарёва, Елена Бобровская

Описание: Полмира на стопе, но только не Патрики. Здесь продолжают любить и изменять, зарабатывать и транжирить, уходить в загул и искать просветления. Главный герой Славик по-прежнему разрывается между любовницами и бизнес-аферами, страстно отдаваясь обоим делам. Костик с Ирой обнаруживают, что их сын-подросток знает про секс больше них. Тем временем брак Хадяковых превращается в театр военных действий — Валя мечтает о духовном просветлении, а генерал ревнует и пускает в ход тяжелую артиллерию. Всё так же сложно у Ромы с Верой и у Паши с Юлей: первые не понимают друг друга, а вторые — страдают от безденежья, мечтая выловить золотую рыбку в мутных водах Патриарших прудов.

Качество: WEBRip-AVC
Формат: MKV

Видео: MPEG-4 AVC, 1024x434, ~ 2300 Кбит/с, 0.207 bit/pixel, 25 Кадр/с
Аудио #01: AC3, 6 ch, 448 Кбит/с | C цензурой
Аудио #02: AC3, 6 ch, 448 Кбит/с | Без цензуры 18+
скриншот  скриншот  скриншот  скриншот  

Общее
Уникальный идентификатор : 84994278977762479439515808758771534916 (0x3FF14D7DA5E87D98DEB366DD0A78CC44)
Полное имя : D:Besprincipnye.S02.2021.WEB-DLRip.AVCBesprincipnye.S02.E01.2021.WEB-DLRip.AVC.mkv
Формат : Matroska
Версия формата : Version 4
Размер файла : 1,31 Гбайт
Продолжительность : 59 м. 6 с.
Общий поток : 3 162 Кбит/сек
Название фильма : Besprincipnye.S02.E01.2021.WEB-DLRip.AVC
Дата кодирования : UTC 2021-11-17 23:21:35
Программа кодирования : mkvmerge v63.0.0 ('Everything') 64-bit
Библиотека кодирования : libebml v1.4.2 + libmatroska v1.6.4
Attachments : poster.jpg

Видео
Идентификатор : 1
Формат : AVC
Формат/Информация : Advanced Video Codec
Профиль формата : Main@L3
Настройки формата : CABAC / 4 Ref Frames
Параметр CABAC формата : Да
Параметр RefFrames формата : 4 кадра
Идентификатор кодека : V_MPEG4/ISO/AVC
Продолжительность : 59 м. 6 с.
Битрейт : 2 300 Кбит/сек
Ширина : 1 024 пикселя
Высота : 434 пикселя
Соотношение сторон : 2,35:1
Режим частоты кадров : Постоянный
Частота кадров : 25,000 кадров/сек
Цветовое пространство : YUV
Субдискретизация насыщенности : 4:2:0
Битовая глубина : 8 бит
Тип развёртки : Прогрессивная
Бит/(Пиксели*Кадры) : 0.207
Размер потока : 957 Мбайт (72%)
Библиотека кодирования : x264 core 157
Настройки программы : cabac=1 / ref=4 / deblock=1:0:0 / analyse=0x1:0x131 / me=umh / subme=10 / psy=1 / psy_rd=1.00:0.00 / mixed_ref=1 / me_range=24 / chroma_me=1 / trellis=2 / 8x8dct=0 / cqm=0 / deadzone=21,11 / fast_pskip=1 / chroma_qp_offset=-2 / threads=14 / lookahead_threads=2 / sliced_threads=0 / nr=0 / decimate=1 / interlaced=0 / bluray_compat=0 / stitchable=1 / constrained_intra=0 / bframes=8 / b_pyramid=2 / b_adapt=2 / b_bias=0 / direct=3 / weightb=1 / open_gop=0 / weightp=2 / keyint=200 / keyint_min=100 / scenecut=40 / intra_refresh=0 / rc_lookahead=60 / rc=2pass / mbtree=1 / bitrate=2300 / ratetol=1.0 / qcomp=0.60 / qpmin=0 / qpmax=69 / qpstep=4 / cplxblur=20.0 / qblur=0.5 / vbv_maxrate=2530 / vbv_bufsize=3450 / nal_hrd=none / filler=0 / ip_ratio=1.40 / aq=1:1.00
Default : Да
Forced : Нет

Аудио #1
Идентификатор : 2
Формат : AC-3
Формат/Информация : Audio Coding 3
Коммерческое название : Dolby Digital
Идентификатор кодека : A_AC3
Продолжительность : 59 м. 6 с.
Вид битрейта : Постоянный
Битрейт : 448 Кбит/сек
Каналы : 6 каналов
Channel layout : L R C LFE Ls Rs
Частота : 48,0 КГц
Частота кадров : 31,250 кадров/сек (1536 SPF)
Метод сжатия : С потерями
Размер потока : 189 Мбайт (14%)
Заголовок : Censor
Язык : Russian
Service kind : Complete Main
Default : Да
Forced : Да

Аудио #2
Идентификатор : 3
Формат : AC-3
Формат/Информация : Audio Coding 3
Коммерческое название : Dolby Digital
Идентификатор кодека : A_AC3
Продолжительность : 59 м. 6 с.
Вид битрейта : Постоянный
Битрейт : 448 Кбит/сек
Каналы : 6 каналов
Channel layout : L R C LFE Ls Rs
Частота : 48,0 КГц
Частота кадров : 31,250 кадров/сек (1536 SPF)
Метод сжатия : С потерями
Размер потока : 189 Мбайт (14%)
Заголовок : 18+
Язык : Russian
Service kind : Complete Main
Default : Нет
Forced : Нет

Текст
Идентификатор : 4
Формат : UTF-8
Идентификатор кодека : S_TEXT/UTF8
Идентификатор кодека/Информация : UTF-8 Plain Text
Продолжительность : 54 м. 53 с.
Битрейт : 115 бит/сек
Count of elements : 794
Размер потока : 46,3 Кбайт (0%)
Заголовок : RU
Язык : Russian
Default : Нет
Forced : Нет

Внимание! Раздача ведётся путём добавления новых серий; при каждом добавлении создаётся новый торрент.
Чтобы начать докачку новой серии, пользователям необходимо сделать следующее:
1. Остановить скачивание;
2. Удалить старый торрент у себя из клиента (старые серии удалять не надо);
3. Скачать новый торрент и запустить его у себя в клиенте вместо старого, при этом указать клиенту путь в старую папку куда и должно происходить скачивание новых серий. Ваш клиент при этом должен произвести хеширование (проверку) старой папки и будет докачивать только те серии, которых у вас ещё нет. Старые серии при этом не удаляются, а продолжают раздаваться! Eсли вы уже удалили старые серии, то предотвратить повторную закачку старых серий можно, отжав галочку в соответствующих местах при запуске нового торрента.

piratbit.org



Скачать Беспринципные через торрент https://d.radikal.ru/d06/2111/21/40fd3a895b99.jpg Скачать, смотреть онлайн Беспринципные бесплантно в хорошем качестве Описание: Полмира на стопе, но только не Патрики. Здесь продолжают любить и изменять, зарабатывать и транжирить, уходить в загул и искать ... 10 10 3
Info! Золотая раздача, скачанное не засчитывается.
Торрент: Зарегистрирован [2021-11-25 03:49] · скачан: 48 раз
Статус: √ проверено
Размер: 3.66 GB
Как cкачать? Как скачать Беспринципные через торрент | UTorrent

% Раздел Тема Автор DL S | L
Наши сериалы [ 14.39 GB ] Беспринципные / Сезон: 2 / Серии: 1-3 из 8 [2021 WEBRip-HEVC 2160p ] bober100 Скачать
5 | 2
Наши сериалы [ 5.58 GB ] Беспринципные / Сезон: 2 / Серии: 1-3 из 8 [2021 WEBRip 720p ] bober100 Скачать
10 | 2
Наши сериалы [ 7.85 GB ] Беспринципные / Сезон: 2 / Серии: 1-3 из 8 [2021 WEBRip 1080p ] bober100 Скачать
6 | 1

28-11-2019 20:33  

Отключить всю рекламу на сайте

    Дорогой пользователь! Огромная просьба, поблагодарите релизера, оцените раздачу и оставьте свои комментарий, если Вы скачали Беспринципные через торрент бесплатно!
    Комментировать посты могут только пользователи прошедшие не сложную регистрацию
    Показать сообщения:    

    Беспринципные через торрент
    Скачать бесплатно Беспринципные
    Беспринципные скачать торрент
    Беспринципные смотреть онлайн
    Cкачать фильм Беспринципные бесплатно
    Беспринципные скачать торрент в хорошем качестве
    Беспринципные смотреть онлайн бесплатно в хорошем качестве


    Вы не можете начинать темы
    Вы не можете отвечать на сообщения
    Вы не можете редактировать свои сообщения
    Вы не можете удалять свои сообщения
    Вы не можете голосовать в опросах
    Вы не можете прикреплять файлы к сообщениям
    Вы можете скачивать файлы