Присоединяйтесь к нам в Telegram!, здесь всегда актуальный адрес сайта, оперативная поддержка и многое другое!!

>

5.9

iTunes

7.4

iTunes

9.4

1 сезон

1

7.4

2 сезон

7.2

iTunes

7.3

1 сезон

13

6.1

iTunes

8.3

GOG

30

ULTIMATE

pack

9.9

Лицензия

ВАЖНО

ИГРА 18+

pack

7.3

RePack

MK11

7.7

RePack

jed

7.8

RePack

fifa19

8.5

RePack

RDR2

RePack

NEED FOR SPEED™ PAYBACK

5 сезон

9 сезон

Бесстыжие 9 сезон

Все сериалы

все сериалы на PB.wtf

RePack

FAR CRY 5

Anonymous, добрый день, мы катастрофически не успеваем собрать деньги на оплату серверов, помогите нам пожалуйста 5,10,15р., для нас важна любая помощь . В качестве благодарности мы отключим Вам всю рекламу на сайте (укажите свой ник в строку Ваше имя)!

×
  
Magnet ссылка

Вне себя / Сезон: 1 / Серии: 1-6 из 8 (Александр Дулерайн, Клим Козинский) [2021, Триллер, комедия, детектив, WEBRip 720p] piratbit.org

Вне себя через торрент piratbit.org

Раздают: 6 [ 2 MB/s ] Качают: 5 [ 0 KB/s ]
Размер: 5.8 GB | Добавлен: 8 ч. назад | Торрент скачан:3 раза
Смотреть онлайн Вне себя | Скачать    Ребята, помогите собрать деньги на оплату серверов!!!

18-11-2021 01:04 Вне себя Скачать торрент  

Вне себя
Год выпуска: 2021
Страна: Россия
Студия: Производство ООО «1-2-3 Продакшн» по заказу АО «ТНТ-Телесеть»
Жанр: Триллер, комедия, детектив
Продолжительность: ~ 00:45:00 серия
Субтитры: отсутствуют

Режиссер: Александр Дулерайн, Клим Козинский



В ролях: Евгений Стычкин, Евгений Цыганов, Елена Лядова, Анна Котова-Дерябина, Аглая Тарасова, Руслан Банковский, Дмитрий Колчин, Максим Иванов (II), Иван Макаревич, Никита Тарасов, Елена Морозова, Павел Комаров (II), Денис Бургазлиев, Роман Лянчук, Юрий Цурило, Анджи Сепеда, Изабель Эйдлен, Наталья Павленкова, Константин Мурзенко, Александр Соколовский, Гульназ Келсимбаева, Гарик Айвазов, Владимир Брест, Ольга Руднева, Анзор Камариддинов

Описание: У гениального финансиста легкое психическое расстройство — он постоянно окружен фантомами, среди которых его убитая жена и её застрелившийся любовник-следователь. Чтобы избавиться от них, герой начинает расследование смерти жены. Тут его ждут сюрпризы — он сам, его жизнь и люди вокруг начинают открываться совершенно с неожиданной стороны.

Качество: WEBRip 720p
Формат: MKV

Видео: MPEG-4 AVC, 1280x544, ~ 3000 Кбит/с, 0.172 bit/pixel, 25 Кадр/с
Аудио: 48.0 kHz, AC3 Dolby Digital, 2/0 (L,R) ch, ~ 192 kbps
скриншот  скриншот  скриншот  скриншот  

Общее
Уникальный идентификатор : 270099981498492422859952120644444903797 (0xCB335D3E7B346777A85717401FC05975)
Полное имя : D:\Vne.sebya.2021.WEB-DL.720p\Vne.sebya.E01.2021.WEB-DL.720p.mkv
Формат : Matroska
Версия формата : Version 4
Размер файла : 1,01 Гбайт
Продолжительность : 45 м. 27 с.
Режим общего битрейта : Переменный
Общий поток : 3 169 Кбит/сек
Название фильма : Vne.sebya.E01.2021.WEB-DL.720p
Дата кодирования : UTC 2021-11-17 21:28:29
Программа кодирования : mkvmerge v63.0.0 ('Everything') 64-bit
Библиотека кодирования : libebml v1.4.2 + libmatroska v1.6.4
Attachments : poster.jpg

Видео
Идентификатор : 1
Формат : AVC
Формат/Информация : Advanced Video Codec
Профиль формата : High@L3.1
Настройки формата : CABAC / 1 Ref Frames
Параметр CABAC формата : Да
Параметр RefFrames формата : 1 кадр
Параметр GOP формата : M=1, N=50
Идентификатор кодека : V_MPEG4/ISO/AVC
Продолжительность : 45 м. 27 с.
Вид битрейта : Переменный
Битрейт : 3 000 Кбит/сек
Ширина : 1 280 пикселей
Высота : 544 пикселя
Соотношение сторон : 2,35:1
Режим частоты кадров : Постоянный
Частота кадров : 25,000 кадров/сек
Цветовое пространство : YUV
Субдискретизация насыщенности : 4:2:0
Битовая глубина : 8 бит
Тип развёртки : Прогрессивная
Бит/(Пиксели*Кадры) : 0.172
Размер потока : 967 Мбайт (94%)
Default : Да
Forced : Нет

Аудио
Идентификатор : 2
Формат : AC-3
Формат/Информация : Audio Coding 3
Коммерческое название : Dolby Digital
Идентификатор кодека : A_AC3
Продолжительность : 45 м. 27 с.
Вид битрейта : Постоянный
Битрейт : 192 Кбит/сек
Каналы : 2 канала
Channel layout : L R
Частота : 48,0 КГц
Частота кадров : 31,250 кадров/сек (1536 SPF)
Метод сжатия : С потерями
Размер потока : 62,4 Мбайт (6%)
Service kind : Complete Main
Default : Да
Forced : Нет

Внимание! Раздача ведётся путём добавления новых серий; при каждом добавлении создаётся новый торрент.
Чтобы начать докачку новой серии, пользователям необходимо сделать следующее:
1. Остановить скачивание;
2. Удалить старый торрент у себя из клиента (старые серии удалять не надо);
3. Скачать новый торрент и запустить его у себя в клиенте вместо старого, при этом указать клиенту путь в старую папку куда и должно происходить скачивание новых серий. Ваш клиент при этом должен произвести хеширование (проверку) старой папки и будет докачивать только те серии, которых у вас ещё нет. Старые серии при этом не удаляются, а продолжают раздаваться! Eсли вы уже удалили старые серии, то предотвратить повторную закачку старых серий можно, отжав галочку в соответствующих местах при запуске нового торрента.

piratbit.org



Скачать Вне себя через торрент https://c.radikal.ru/c27/2111/40/58b02681361e.jpg Скачать, смотреть онлайн Вне себя бесплантно в хорошем качестве Описание: У гениального финансиста легкое психическое расстройство — он постоянно окружен фантомами, среди которых его убитая жена и её ... 8.7 10 7
Торрент: Зарегистрирован [2021-12-02 04:05] · скачан: 3 раз
Статус: √ проверено
Размер: 5.8 GB
Как cкачать? Как скачать Вне себя через торрент | UTorrent

% Раздел Тема Автор DL S | L
TNT serials [ 8.53 GB ] Вне себя / Сезон: 1 / Серии: 1-6 из 8 [2021 WEBRip 1080p] bober100 Скачать
17 | 7
TNT serials [ 3.49 GB ] Вне себя / Сезон: 1 / Серии: 1-6 из 8 [2021 WEBRip] bober100 Скачать
4 | 4

28-11-2019 20:33  

Отключить всю рекламу на сайте

    Дорогой пользователь! Огромная просьба, поблагодарите релизера, оцените раздачу и оставьте свои комментарий, если Вы скачали Вне себя через торрент бесплатно!
    Комментировать посты могут только пользователи прошедшие не сложную регистрацию
    Показать сообщения:    

    Вне себя через торрент
    Скачать бесплатно Вне себя
    Вне себя скачать торрент
    Вне себя смотреть онлайн
    Cкачать фильм Вне себя бесплатно
    Вне себя скачать торрент в хорошем качестве
    Вне себя смотреть онлайн бесплатно в хорошем качестве


    Вы не можете начинать темы
    Вы не можете отвечать на сообщения
    Вы не можете редактировать свои сообщения
    Вы не можете удалять свои сообщения
    Вы не можете голосовать в опросах
    Вы не можете прикреплять файлы к сообщениям
    Вы можете скачивать файлы