Присоединяйтесь к нам в Telegram!, здесь всегда актуальный адрес сайта, оперативная поддержка и многое другое!!

>

5.9

iTunes

7.4

iTunes

9.4

1 сезон

1

7.4

2 сезон

7.2

iTunes

7.3

1 сезон

13

6.1

iTunes

8.3

Пиратка

30

ULTIMATE

pack

9.9

Лицензия

ВАЖНО

ИГРА 18+

pack

7.3

RePack

MK11

7.7

RePack

jed

7.8

RePack

fifa19

8.5

RePack

RDR2

RePack

NEED FOR SPEED™ PAYBACK

5 сезон

9 сезон

Бесстыжие 9 сезон

Все сериалы

все сериалы на PB.wtf

RePack

FAR CRY 5

Anonymous, доброй ночи, мы катастрофически не успеваем собрать деньги на оплату серверов, помогите нам пожалуйста 5,10,15р., для нас важна любая помощь . В качестве благодарности мы отключим Вам всю рекламу на сайте (укажите свой ник в строку Ваше имя)!

×
  
Magnet ссылка

Лошадь мечты / Dream Horse (Эрос Лин) [2020, Драма, комедия, биография, спорт, BDRip-AVC] MVO [Кириллица] от ExKinoRay piratbit.org

Лошадь мечты через торрент piratbit.org

Раздают: 3 [ 0 KB/s ]
Размер: 2.51 GB | Добавлен: 13 д. назад | Торрент скачан:32 раза
Смотреть онлайн Лошадь мечты | Скачать    Ребята, помогите собрать деньги на оплату серверов!!!

21-11-2021 16:28 Лошадь мечты Скачать торрент  


Лошадь мечты / Dream Horse
Информация о фильме:
Название: Лошадь мечты
Оригинальное название: Dream Horse
Год выхода: 2020
Жанр: Драма, комедия, биография, спорт
Режиссер: Эрос Лин

В ролях: Дэмиэн Льюис, Тони Коллетт, Оуэн Тил, Шан Филлипс, Николас Фэррел, Питер Дэвисон, Карл Джонсон, Джоанна Пейдж, Кэтерин Дженкинс, Даррен Эванс

Описание: Джан, увязшая в унылой повседневности своих трудовых и семейных будней, решает завести себе скаковую лошадь. Не имея ни опыта, ни средств, она убеждает своих соседей вложить их небольшие сбережения в Мечту - в надежде однажды поучаствовать в больших скачках.



Страна: Великобритания
Студия: Ffilm Cymru Wales, Film4, Ingenious Media
Продолжительность: 01:54:09
Перевод: Профессиональный (многоголосый, закадровый) - Кириллица



Информация о файле:
Кодек: AVC
Формат: MKV
Качество: BDRip-AVC | Loshad.Mechty.2020.BDRemux 1080p.ExKinoRay
Видео: MPEG-4 AVC, 1024x428, 23.976 fps, 2250 kbps
Аудио RU: AC3, 6 ch, 48 kHz, 448 kbps
Аудио EN: AC3, 6 ch, 48 kHz, 448 kbps
Субтитры: Русские (forced, full), украинские (full), английские, немецкие

x264 info: frame I:1469 Avg QP:14.93 size: 83437
x264 info: frame P:40286 Avg QP:18.16 size: 24305
x264 info: frame B:122458 Avg QP:19.70 size: 6722
x264 info: consecutive B-frames: 4.0% 3.9% 10.9% 29.2% 14.9% 19.6% 7.1% 7.5% 0.8% 0.4% 1.7%
General
Unique ID : 179372620427137176758116455570143570825 (0x86F1E8FB8D610DF3001C72812B9DEB89)
Complete name : D:uTorrentРипы wolf1245Loshad.Mechty.2020.MVO.KIRILICA.BDRip-AVC.[wolf1245.ExKinoRay].mkv
Format : Matroska
Format version : Version 4
File size : 2.51 GiB
Duration : 1 h 54 min
Overall bit rate : 3 148 kb/s
Movie name : Loshad.Mechty.2020.MVO.KIRILICA.BDRip-AVC.[wolf1245.ExKinoRay]
Encoded date : UTC 2021-11-21 16:10:56
Writing application : mkvmerge v63.0.0 ('Everything') 64-bit
Writing library : libebml v1.4.2 + libmatroska v1.6.4
Video
ID : 1
Format : AVC
Format/Info : Advanced Video Codec
Format profile : High@L4.1
Format settings : CABAC / 12 Ref Frames
Format settings, CABAC : Yes
Format settings, Reference frames : 12 frames
Codec ID : V_MPEG4/ISO/AVC
Duration : 1 h 54 min
Bit rate : 2 250 kb/s
Width : 1 024 pixels
Height : 428 pixels
Display aspect ratio : 2.40:1
Frame rate mode : Constant
Frame rate : 23.976 (24000/1001) FPS
Color space : YUV
Chroma subsampling : 4:2:0
Bit depth : 8 bits
Scan type : Progressive
Bits/(Pixel*Frame) : 0.214
Stream size : 1.79 GiB (71%)
Title : -=[wolf1245.ExKinoRay]=-
Writing library : x264 core 163 r3060 5db6aa6
Encoding settings : cabac=1 / ref=12 / deblock=1:-3:-3 / analyse=0x3:0x133 / me=umh / subme=11 / psy=1 / psy_rd=1.02:0.02 / mixed_ref=1 / me_range=48 / chroma_me=1 / trellis=2 / 8x8dct=1 / cqm=0 / deadzone=21,11 / fast_pskip=1 / chroma_qp_offset=-3 / threads=10 / lookahead_threads=2 / sliced_threads=0 / nr=0 / decimate=0 / interlaced=0 / bluray_compat=0 / constrained_intra=0 / bframes=10 / b_pyramid=2 / b_adapt=2 / b_bias=0 / direct=3 / weightb=1 / open_gop=0 / weightp=2 / keyint=240 / keyint_min=24 / scenecut=40 / intra_refresh=0 / rc_lookahead=60 / rc=2pass / mbtree=0 / bitrate=2250 / ratetol=1.0 / qcomp=0.60 / qpmin=0 / qpmax=69 / qpstep=4 / cplxblur=20.0 / qblur=0.5 / vbv_maxrate=50000 / vbv_bufsize=62500 / nal_hrd=none / filler=0 / ip_ratio=1.35 / pb_ratio=1.30 / aq=1:0.80
Language : English
Default : Yes
Forced : No
Audio #1
ID : 2
Format : AC-3
Format/Info : Audio Coding 3
Commercial name : Dolby Digital
Codec ID : A_AC3
Duration : 1 h 54 min
Bit rate mode : Constant
Bit rate : 448 kb/s
Channel(s) : 6 channels
Channel layout : L R C LFE Ls Rs
Sampling rate : 48.0 kHz
Frame rate : 31.250 FPS (1536 SPF)
Compression mode : Lossy
Stream size : 366 MiB (14%)
Title : MVO (Kirillica)
Language : Russian
Service kind : Complete Main
Default : Yes
Forced : No
Audio #2
ID : 3
Format : AC-3
Format/Info : Audio Coding 3
Commercial name : Dolby Digital
Codec ID : A_AC3
Duration : 1 h 54 min
Bit rate mode : Constant
Bit rate : 448 kb/s
Channel(s) : 6 channels
Channel layout : L R C LFE Ls Rs
Sampling rate : 48.0 kHz
Frame rate : 31.250 FPS (1536 SPF)
Compression mode : Lossy
Stream size : 366 MiB (14%)
Title : Original
Language : English
Service kind : Complete Main
Default : Yes
Forced : No
Text #1
ID : 4
Format : UTF-8
Codec ID : S_TEXT/UTF8
Codec ID/Info : UTF-8 Plain Text
Duration : 1 h 51 min
Bit rate : 2 b/s
Count of elements : 32
Stream size : 1.82 KiB (0%)
Title : forced
Language : Russian
Default : Yes
Forced : No
Text #2
ID : 5
Format : UTF-8
Codec ID : S_TEXT/UTF8
Codec ID/Info : UTF-8 Plain Text
Duration : 1 h 51 min
Bit rate : 102 b/s
Count of elements : 1370
Stream size : 83.8 KiB (0%)
Title : full
Language : Russian
Default : No
Forced : No
Text #3
ID : 6
Format : UTF-8
Codec ID : S_TEXT/UTF8
Codec ID/Info : UTF-8 Plain Text
Duration : 1 h 51 min
Bit rate : 88 b/s
Count of elements : 1370
Stream size : 72.3 KiB (0%)
Title : full
Language : Ukrainian
Default : No
Forced : No
Text #4
ID : 7
Format : UTF-8
Codec ID : S_TEXT/UTF8
Codec ID/Info : UTF-8 Plain Text
Duration : 1 h 49 min
Bit rate : 66 b/s
Count of elements : 1580
Stream size : 53.0 KiB (0%)
Title : SRT
Language : English
Default : No
Forced : No
Text #5
ID : 8
Format : PGS
Muxing mode : zlib
Codec ID : S_HDMV/PGS
Codec ID/Info : Picture based subtitle format used on BDs/HD-DVDs
Duration : 1 h 47 min
Bit rate : 1 712 b/s
Count of elements : 100
Stream size : 1.32 MiB (0%)
Language : German
Default : No
Forced : No
Menu
00:00:00.000 : :Chapter 01
00:09:28.401 : :Chapter 02
00:19:40.429 : :Chapter 03
00:29:40.570 : :Chapter 04
00:39:58.437 : :Chapter 05
00:51:20.869 : :Chapter 06
00:56:24.714 : :Chapter 07
01:08:30.106 : :Chapter 08
01:19:49.367 : :Chapter 09
01:29:08.509 : :Chapter 10
01:38:25.399 : :Chapter 11
01:47:10.257 : :Chapter 12
Релиз от:
Автор релиза:
piratbit.org



Скачать Лошадь мечты через торрент https://i116.fastpic.org/big/2021/1120/ce/86ce19e9e11c474acd0a680c3743c1ce.jpg Скачать, смотреть онлайн Лошадь мечты бесплантно в хорошем качестве Описание: Джан, увязшая в унылой повседневности своих трудовых и семейных будней, решает завести себе скаковую лошадь. Не имея ни опыта, ... 10 10 3
Торрент: Зарегистрирован [2021-11-21 16:28] · скачан: 32 раз
Статус: √ проверено
Размер: 2.51 GB
Как cкачать? Как скачать Лошадь мечты через торрент | UTorrent

28-11-2019 20:33  

Отключить всю рекламу на сайте

22-11-2021 13:05 Лошадь мечты Скачать торрент  

Хороший фильмец, рекомендую! piratbit.org



    Дорогой пользователь! Огромная просьба, поблагодарите релизера, оцените раздачу и оставьте свои комментарий, если Вы скачали Лошадь мечты через торрент бесплатно!
    Комментировать посты могут только пользователи прошедшие не сложную регистрацию
    Показать сообщения:    

    Лошадь мечты через торрент
    Скачать бесплатно Лошадь мечты
    Лошадь мечты скачать торрент
    Лошадь мечты смотреть онлайн
    Cкачать фильм Лошадь мечты бесплатно
    Лошадь мечты скачать торрент в хорошем качестве
    Лошадь мечты смотреть онлайн бесплатно в хорошем качестве


    Вы не можете начинать темы
    Вы не можете отвечать на сообщения
    Вы не можете редактировать свои сообщения
    Вы не можете удалять свои сообщения
    Вы не можете голосовать в опросах
    Вы не можете прикреплять файлы к сообщениям
    Вы можете скачивать файлы