Присоединяйтесь к нам в Telegram!, здесь всегда актуальный адрес сайта, оперативная поддержка и многое другое!!

>

5.9

iTunes

7.4

iTunes

9.4

1 сезон

1

7.4

2 сезон

7.2

iTunes

7.3

1 сезон

13

6.1

iTunes

8.3

Пиратка

30

ULTIMATE

pack

9.9

Лицензия

ВАЖНО

ИГРА 18+

pack

7.3

RePack

MK11

7.7

RePack

jed

7.8

RePack

fifa19

8.5

RePack

RDR2

RePack

NEED FOR SPEED™ PAYBACK

5 сезон

9 сезон

Бесстыжие 9 сезон

Все сериалы

все сериалы на PB.wtf

RePack

FAR CRY 5

Anonymous, добрый вечер, мы катастрофически не успеваем собрать деньги на оплату серверов, помогите нам пожалуйста 5,10,15р., для нас важна любая помощь . В качестве благодарности мы отключим Вам всю рекламу на сайте (укажите свой ник в строку Ваше имя)!

×
  
Magnet ссылка

Удары / Bruised (Холли Берри) [2020, Драма, спорт, WEB-DLRip-AVC] DVO [Pazl Voice] от ExKinoRay piratbit.org

Удары через торрент piratbit.org

Раздают: 8 [ 175 KB/s ]
Размер: 1.96 GB | Добавлен: 13 д. назад | Торрент скачан:55 раз
Смотреть онлайн Удары | Скачать    Ребята, помогите собрать деньги на оплату серверов!!!

21-11-2021 19:11 Удары Скачать торрент  


Удары / Bruised
Информация о фильме:
Название: Удары
Оригинальное название: Bruised
Год выхода: 2020
Жанр: Драма, спорт
Режиссер: Холли Берри

В ролях: Стивен Хендерсон, Холли Берри, Шамир Андерсон, Лила Лорен, Адан Канто, Уилл Блэгроув, Марселла Ленц-Поуп, Адриан Ленокс, Николай Николаефф, Денни Диллон

Описание: Выбирая между ребёнком и рингом, Джеки отдала предпочтение спортивной карьере. Но несколько лет спустя, когда она уже ушла из спорта и работает уборщицей, прошлое внезапно настигает её - отец мальчика умер, и теперь Джеки придётся заботится о шестилетнем сыне. Женщина вынужденно возвращается на ринг, чтобы заработать на будущее себе и ребёнку.



Страна: США, Великобритания
Студия: Romulus Entertainment, Aloe Entertainment, Bohemia Media
Продолжительность: 02:04:10
Перевод: Любительский (двухголосый, закадровый) - Pazl Voice



Информация о файле:
Кодек: AVC
Формат: MKV
Качество: WEB-DLRip-AVC
Видео: MPEG-4 AVC, 1024x428, 23.976 fps, 1650 kb/s
Аудио RU: AC3, 2 ch, 48 kHz, 224 kbps | Tnx.KinoPub
Аудио EN: AC3, 2 ch, 48 kHz, 384 kbps
Субтитры: Английские

x264 info: frame I:1257 Avg QP:14.81 size: 47457
x264 info: frame P:50125 Avg QP:18.12 size: 17062
x264 info: frame B:127417 Avg QP:20.39 size: 4878
x264 info: consecutive B-frames: 4.0% 5.9% 12.6% 52.6% 11.0% 11.2% 1.3% 0.9% 0.2% 0.2% 0.1%
General
Unique ID : 255418484371544307830732124482273535390 (0xC027CF8CAA0BF24BB54DFD78795FE59E)
Complete name : D:uTorrentРипы wolf1245Bruised.2020.DVO.Pazl.WEB-DLRip-AVC.[wolf1245.ExKinoRay].mkv
Format : Matroska
Format version : Version 4
File size : 1.96 GiB
Duration : 2 h 4 min
Overall bit rate : 2 260 kb/s
Movie name : Bruised.2020.DVO.Pazl.WEB-DLRip-AVC.[wolf1245.ExKinoRay]
Encoded date : UTC 2021-11-21 18:51:26
Writing application : mkvmerge v63.0.0 ('Everything') 64-bit
Writing library : libebml v1.4.2 + libmatroska v1.6.4
Video
ID : 1
Format : AVC
Format/Info : Advanced Video Codec
Format profile : High@L4.1
Format settings : CABAC / 12 Ref Frames
Format settings, CABAC : Yes
Format settings, Reference frames : 12 frames
Codec ID : V_MPEG4/ISO/AVC
Duration : 2 h 4 min
Bit rate : 1 650 kb/s
Width : 1 024 pixels
Height : 428 pixels
Display aspect ratio : 2.40:1
Frame rate mode : Constant
Frame rate : 24.000 FPS
Color space : YUV
Chroma subsampling : 4:2:0
Bit depth : 8 bits
Scan type : Progressive
Bits/(Pixel*Frame) : 0.157
Stream size : 1.43 GiB (73%)
Title : .[wolf1245.ExKinoRay]
Writing library : x264 core 163 r3060 5db6aa6
Encoding settings : cabac=1 / ref=12 / deblock=1:-2:-2 / analyse=0x3:0x133 / me=umh / subme=10 / psy=1 / psy_rd=1.05:0.10 / mixed_ref=1 / me_range=32 / chroma_me=1 / trellis=2 / 8x8dct=1 / cqm=0 / deadzone=21,11 / fast_pskip=1 / chroma_qp_offset=-3 / threads=10 / lookahead_threads=2 / sliced_threads=0 / nr=0 / decimate=0 / interlaced=0 / bluray_compat=0 / constrained_intra=0 / bframes=10 / b_pyramid=2 / b_adapt=2 / b_bias=0 / direct=3 / weightb=1 / open_gop=0 / weightp=2 / keyint=240 / keyint_min=24 / scenecut=40 / intra_refresh=0 / rc_lookahead=60 / rc=2pass / mbtree=0 / bitrate=1650 / ratetol=1.0 / qcomp=0.60 / qpmin=0 / qpmax=69 / qpstep=4 / cplxblur=20.0 / qblur=0.5 / vbv_maxrate=50000 / vbv_bufsize=62500 / nal_hrd=none / filler=0 / ip_ratio=1.40 / pb_ratio=1.35 / aq=3:0.80
Language : English
Default : Yes
Forced : No
Color range : Limited
Color primaries : BT.709
Transfer characteristics : BT.709
Matrix coefficients : BT.709
Audio #1
ID : 2
Format : AC-3
Format/Info : Audio Coding 3
Commercial name : Dolby Digital
Codec ID : A_AC3
Duration : 2 h 4 min
Bit rate mode : Constant
Bit rate : 224 kb/s
Channel(s) : 2 channels
Channel layout : L R
Sampling rate : 48.0 kHz
Frame rate : 31.250 FPS (1536 SPF)
Compression mode : Lossy
Stream size : 199 MiB (10%)
Title : [.DVO.] Pazl Voice
Language : Russian
Service kind : Complete Main
Default : Yes
Forced : No
Audio #2
ID : 3
Format : AC-3
Format/Info : Audio Coding 3
Commercial name : Dolby Digital
Codec ID : A_AC3
Duration : 2 h 4 min
Bit rate mode : Constant
Bit rate : 384 kb/s
Channel(s) : 2 channels
Channel layout : L R
Sampling rate : 48.0 kHz
Frame rate : 31.250 FPS (1536 SPF)
Compression mode : Lossy
Delay relative to video : 78 ms
Stream size : 341 MiB (17%)
Title : Original
Language : English
Service kind : Complete Main
Default : No
Forced : No
Text
ID : 4
Format : UTF-8
Codec ID : S_TEXT/UTF8
Codec ID/Info : UTF-8 Plain Text
Duration : 2 h 1 min
Bit rate : 48 b/s
Count of elements : 1325
Stream size : 43.2 KiB (0%)
Language : English
Default : No
Forced : No
Релиз от:
Автор релиза:
piratbit.org



Скачать Удары через торрент https://i116.fastpic.org/big/2021/1121/c8/2aff57b62c66c34e7ced40ba8511e1c8.jpg Скачать, смотреть онлайн Удары бесплантно в хорошем качестве Описание: Выбирая между ребёнком и рингом, Джеки отдала предпочтение спортивной карьере. Но несколько лет спустя, когда она уже ушла из ... 10 10 5
Торрент: Зарегистрирован [2021-11-21 19:11] · скачан: 55 раз
Статус: T временная
Размер: 1.96 GB
Как cкачать? Как скачать Удары через торрент | UTorrent

28-11-2019 20:33  

Отключить всю рекламу на сайте

21-11-2021 21:00 Удары Скачать торрент  

Топик был перенесен из форума Фильмы 2019-2020 [DVDrip, WEB-DLRip, HDrip] (DUB, MVO) в форум Фильмы 2019-2020 (Звук TS, Cam, VO, DVO)


bober100piratbit.org



26-11-2021 10:08 Удары Скачать торрент  

кино про нигров?piratbit.org



    Дорогой пользователь! Огромная просьба, поблагодарите релизера, оцените раздачу и оставьте свои комментарий, если Вы скачали Удары через торрент бесплатно!
    Комментировать посты могут только пользователи прошедшие не сложную регистрацию
    Показать сообщения:    

    Удары через торрент
    Скачать бесплатно Удары
    Удары скачать торрент
    Удары смотреть онлайн
    Cкачать фильм Удары бесплатно
    Удары скачать торрент в хорошем качестве
    Удары смотреть онлайн бесплатно в хорошем качестве


    Вы не можете начинать темы
    Вы не можете отвечать на сообщения
    Вы не можете редактировать свои сообщения
    Вы не можете удалять свои сообщения
    Вы не можете голосовать в опросах
    Вы не можете прикреплять файлы к сообщениям
    Вы можете скачивать файлы