Присоединяйтесь к нам в Telegram!, здесь всегда актуальный адрес сайта, оперативная поддержка и многое другое!!

>

5.9

iTunes

7.4

iTunes

9.4

1 сезон

1

7.4

2 сезон

7.2

iTunes

7.3

1 сезон

13

6.1

iTunes

8.3

Пиратка

30

ULTIMATE

pack

9.9

Лицензия

ВАЖНО

ИГРА 18+

pack

7.3

RePack

MK11

7.7

RePack

jed

7.8

RePack

fifa19

8.5

RePack

RDR2

RePack

NEED FOR SPEED™ PAYBACK

5 сезон

9 сезон

Бесстыжие 9 сезон

Все сериалы

все сериалы на PB.wtf

RePack

FAR CRY 5

Anonymous, доброй ночи, мы катастрофически не успеваем собрать деньги на оплату серверов, помогите нам пожалуйста 5,10,15р., для нас важна любая помощь . В качестве благодарности мы отключим Вам всю рекламу на сайте (укажите свой ник в строку Ваше имя)!

×
  
Magnet ссылка

Редкие звери / Rare Beasts (Билли Пайпер) [2019, Драма, мелодрама, комедия, WEB-DL 1080p] MVO [iTunes] piratbit.org

Редкие звери через торрент piratbit.org

Раздают: 3 [ 49 KB/s ]
Размер: 3.43 GB | Добавлен: 11 д. назад | Торрент скачан:42 раза
Смотреть онлайн Редкие звери | Скачать    Ребята, помогите собрать деньги на оплату серверов!!!

23-11-2021 03:48 Редкие звери Скачать торрент  

Редкие звери | Rare Beasts
Год выпуска: 2019
Страна: Великобритания
Выпущено: Singer Studios, Western Edge Pictures
Жанр: Драма, мелодрама, комедия
Продолжительность: 01:31:30
Перевод: Профессиональный (многоголосый) | iTunes
Субтитры: Aнглийские

Режиссер: Билли Пайпер

rating

В ролях: Лили Джеймс, Дэвид Тьюлис, Билли Пайпер, Керри Фокс, Антония Кэмпбелл-Хьюз, Лео Билл, Роза Кодури, Джолион Кой, Тревор Уайт, Эмили Тааффе

Описание: Мэнди — прогрессивная мать-одиночка сложного ребенка. У нее непростые отношения с родителями: те в разводе, мать больна, а отец придерживается весьма фривольного образа жизни. Мэнди начинает встречаться со своим коллегой Питом, непоколебимым упрямцем, который мечтает о браке, но не готов ничем жертвовать ради создания семьи. Они совершенно точно не созданы друг для друга. Но так ли это важно для неуверенной в себе, но крайне целеустремленной Мэнди, которая устала балансировать между житейскими проблемами, общественными ожиданиями и собственными амбициями.

Качество: WEB-DL 1080p
Формат: MKV

Видео: MPEG-4 AVC, 4596 Кбит/с, 1918x798, 24,000 fps
Аудио #01: 48 kHz, AC3, 5.1, 384 Kbps | iTunes | RUS |
Аудио #02: 48 kHz, AC3, 5.1, 384 Kbps | Оригинал | ENG |
скриншот  скриншот  скриншот  скриншот  скриншот  

Общее
Уникальный идентификатор : 148017401388812397769763446656950454483 (0x6F5B1D53F7F9355E5A0BA7172601C8D3)
Полное имя : E:TorrentsRare.Beasts.2019.1080p.WEB-DL_JNS82.mkv
Формат : Matroska
Версия формата : Version 4
Размер файла : 3,43 Гбайт
Продолжительность : 1 ч. 31 м.
Общий поток : 5 366 Кбит/сек
Название фильма : Rare.Beasts.2019.1080p.WEB-DL_JNS82
Дата кодирования : UTC 2021-11-22 19:16:48
Программа кодирования : mkvmerge v59.0.0 ('Shining Star') 64-bit
Библиотека кодирования : libebml v1.4.2 + libmatroska v1.6.4
Обложка : Yes
Attachments : small_cover.jpg / small_cover_land.jpg / cover.jpg / cover_land.jpg

Видео
Идентификатор : 1
Формат : AVC
Формат/Информация : Advanced Video Codec
Профиль формата : High@L4
Настройки формата : CABAC / 5 Ref Frames
Параметр CABAC формата : Да
Параметр RefFrames формата : 5 кадров
Идентификатор кодека : V_MPEG4/ISO/AVC
Продолжительность : 1 ч. 31 м.
Битрейт : 4 596 Кбит/сек
Ширина : 1 918 пикселей
Высота : 798 пикселей
Соотношение сторон : 2,40:1
Режим частоты кадров : Постоянный
Частота кадров : 24,000 кадра/сек
Цветовое пространство : YUV
Субдискретизация насыщенности : 4:2:0
Битовая глубина : 8 бит
Тип развёртки : Прогрессивная
Бит/(Пиксели*Кадры) : 0.125
Размер потока : 2,94 Гбайт (86%)
Язык : English
Default : Да
Forced : Нет
Цветовой диапазон : Limited
Основные цвета : BT.709
Характеристики трансфера : BT.709
Коэффициенты матрицы : BT.709

Аудио #1
Идентификатор : 2
Формат : AC-3
Формат/Информация : Audio Coding 3
Коммерческое название : Dolby Digital
Идентификатор кодека : A_AC3
Продолжительность : 1 ч. 31 м.
Вид битрейта : Постоянный
Битрейт : 384 Кбит/сек
Каналы : 6 каналов
Channel layout : L R C LFE Ls Rs
Частота : 48,0 КГц
Частота кадров : 31,250 кадров/сек (1536 SPF)
Метод сжатия : С потерями
Размер потока : 251 Мбайт (7%)
Заголовок : [MVO] iTunes
Язык : Russian
Service kind : Complete Main
Default : Да
Forced : Нет

Аудио #2
Идентификатор : 3
Формат : AC-3
Формат/Информация : Audio Coding 3
Коммерческое название : Dolby Digital
Идентификатор кодека : A_AC3
Продолжительность : 1 ч. 31 м.
Вид битрейта : Постоянный
Битрейт : 384 Кбит/сек
Каналы : 6 каналов
Channel layout : L R C LFE Ls Rs
Частота : 48,0 КГц
Частота кадров : 31,250 кадров/сек (1536 SPF)
Метод сжатия : С потерями
Размер потока : 251 Мбайт (7%)
Язык : English
Service kind : Complete Main
Default : Нет
Forced : Нет

Текст
Идентификатор : 4
Формат : UTF-8
Идентификатор кодека : S_TEXT/UTF8
Идентификатор кодека/Информация : UTF-8 Plain Text
Продолжительность : 1 ч. 24 м.
Битрейт : 63 бит/сек
Count of elements : 1345
Размер потока : 39,4 Кбайт (0%)
Язык : English
Default : Нет
Forced : Нет

piratbit.org



Скачать Редкие звери через торрент https://c.radikal.ru/c40/2111/2f/bbb1bf6a40e8.jpg Скачать, смотреть онлайн Редкие звери бесплантно в хорошем качестве Описание: Мэнди — прогрессивная мать-одиночка сложного ребенка. У нее непростые отношения с родителями: те в разводе, мать больна, а отец ... 10 10 4
Торрент: Зарегистрирован [2021-11-23 03:48] · скачан: 42 раз
Статус: √ проверено
Размер: 3.43 GB
Как cкачать? Как скачать Редкие звери через торрент | UTorrent

% Раздел Тема Автор DL S | L
Фильмы 2019-2020 [DVDrip, WEB-DLRip, HDrip] (DUB, MVO) [ 1.46 GB ] Редкие звери / Rare Beasts [2019 WEB-DLRip] MVO bober100 Скачать
3 | 0

28-11-2019 20:33  

Отключить всю рекламу на сайте

    Дорогой пользователь! Огромная просьба, поблагодарите релизера, оцените раздачу и оставьте свои комментарий, если Вы скачали Редкие звери через торрент бесплатно!
    Комментировать посты могут только пользователи прошедшие не сложную регистрацию
    Показать сообщения:    

    Редкие звери через торрент
    Скачать бесплатно Редкие звери
    Редкие звери скачать торрент
    Редкие звери смотреть онлайн
    Cкачать фильм Редкие звери бесплатно
    Редкие звери скачать торрент в хорошем качестве
    Редкие звери смотреть онлайн бесплатно в хорошем качестве


    Вы не можете начинать темы
    Вы не можете отвечать на сообщения
    Вы не можете редактировать свои сообщения
    Вы не можете удалять свои сообщения
    Вы не можете голосовать в опросах
    Вы не можете прикреплять файлы к сообщениям
    Вы можете скачивать файлы