Присоединяйтесь к нам в Telegram!, здесь всегда актуальный адрес сайта, оперативная поддержка и многое другое!!

>

5.9

iTunes

7.4

iTunes

9.4

1 сезон

1

7.4

2 сезон

7.2

iTunes

7.3

1 сезон

13

6.1

iTunes

8.3

Пиратка

30

ULTIMATE

pack

9.9

Лицензия

ВАЖНО

ИГРА 18+

pack

7.3

RePack

MK11

7.7

RePack

jed

7.8

RePack

fifa19

8.5

RePack

RDR2

RePack

NEED FOR SPEED™ PAYBACK

5 сезон

9 сезон

Бесстыжие 9 сезон

Все сериалы

все сериалы на PB.wtf

RePack

FAR CRY 5

Anonymous, доброй ночи, мы катастрофически не успеваем собрать деньги на оплату серверов, помогите нам пожалуйста 5,10,15р., для нас важна любая помощь . В качестве благодарности мы отключим Вам всю рекламу на сайте (укажите свой ник в строку Ваше имя)!

×
  
Magnet ссылка

Ох уж эта наука! / Weird Science (Джон Хьюз) [1985 г., фантастика, фэнтези, комедия, мелодрама, BDRip - HEVC 1080p 10 bit 60 FPS, DVO] piratbit.org

Ох уж эта наука! через торрент piratbit.org

Раздают: 6 [ 0 KB/s ]
Размер: 3.31 GB | Добавлен: 11 д. назад | Торрент скачан:35 раз
Смотреть онлайн Ох уж эта наука! | Скачать    Ребята, помогите собрать деньги на оплату серверов!!!

23-11-2021 11:30 Ох уж эта наука! Скачать торрент  

Weird Science
«Если не с кем назначить свидание, создай себе девушку сам!»


Год выпуска: 1985
Страна: США
Жанр: фэнтези, мелодрама, комедия

Продолжительность: 01:33:29
Перевод: Профессиональный двухголосый закадровый | НТВ
Субтитры: русские |

Режиссер: Джон Хьюз
В ролях: Энтони Майкл Холл, Келли ЛеБрок, Илан Митчелл-Смит, Билл Пэкстон, Сюзанн Снайдер, Джуди Аронсон, Роберт Дауни мл., Роберт Раслер, Вернон Уэллс, Бритт Лич, Барбара Лэнг, Майкл Берриман, Айвор Бэрри, Энн Койл, Джон Капелос, Фред Д. Скотт, Винс Таунсенд мл., Чино 'Фэтс' Уильямс, Джилл Уайтло, Уоллес Лэнгэм, Микул Робинс, Даррен Харрис, Рене Пропс, Майкл Крамер, Тодд Хоффман, Д’Митч Дэвис, Мэри Стилсмит, Робин Фроман, Элисон Кэрол Лоу, Ким Малин, Дженнифер Бэлгобин, Джефф Дженсен, Принц Хьюз, Рик Ле Февр, Рок А. Уолкер, Джо Гиб, Кевин Томпсон, Даг МакХью, Памела Гордон

Описание:
Вариант легенды о Франкештейне в этой вызывающей комедии. Наивный вундеркинд и его друг создают «идеальную женщину». Их создание - прекрасная женщина помогает им пройти через все испытания юности.

Мировая премьера: 2 августа 1985


Качество: BDRip 1080p Rip by DD2D3
Формат: MKV
Видео: V_MPEGH/ISO/HEVC; 1920x1040 (1.85:1); 4775 Kbps; 59,940 fps; 0,040 bpp
Аудио: русский; AC3; 192 Kbps; CBR; 2 ch ||
Навигация по главам: есть



Общее
Уникальный идентификатор : 224430213334184401867406842864547108189 (0xA8D7AFD3FEF955469B8001C54D07955D)
Полное имя : D:\Weird Science (1985) BDRip - HEVC 1080p 10 bit 60 FPS.mkv
Формат : Matroska
Версия формата : Version 2
Размер файла : 3,31 Гбайт
Продолжительность : 1 ч. 33 м.
Общий поток : 5 068 Кбит/сек
Название фильма : Rip by from DD2D3
Дата кодирования : UTC 2021-11-23 11:07:10
Программа кодирования : mkvmerge v7.8.0 ('River Man') 32bit built on Apr 3 2015 12:11:22
Библиотека кодирования : libebml v1.3.1 + libmatroska v1.4.2
Attachments : poster / poster / Weird Science (1985) BDRip - HEVC 1080p 10 bit 60 FPS.jpg

Видео
Идентификатор : 1
Формат : HEVC
Формат/Информация : High Efficiency Video Coding
Профиль формата : Main 10@L4.1@Main
Идентификатор кодека : V_MPEGH/ISO/HEVC
Продолжительность : 1 ч. 33 м.
Битрейт : 4 775 Кбит/сек
Ширина : 1 920 пикселей
Высота : 1 040 пикселей
Соотношение сторон : 1,85:1
Режим частоты кадров : Постоянный
Частота кадров : 59,940 (60000/1001) кадров/сек
Цветовое пространство : YUV
Субдискретизация насыщенности : 4:2:0
Битовая глубина : 10 бит
Бит/(Пиксели*Кадры) : 0.040
Размер потока : 3,12 Гбайт (94%)
Библиотека кодирования : x265 3.5+10-82786fccc:[Windows][GCC 11.1.0][64 bit] 10bit
Настройки программы : cpuid=1111039 / frame-threads=2 / numa-pools=4 / wpp / no-pmode / no-pme / no-psnr / no-ssim / log-level=2 / input-csp=1 / input-res=1920x1040 / interlace=0 / total-frames=336261 / level-idc=41 / high-tier=1 / uhd-bd=0 / ref=3 / no-allow-non-conformance / no-repeat-headers / annexb / no-aud / no-eob / no-eos / no-hrd / info / hash=0 / no-temporal-layers / open-gop / min-keyint=25 / keyint=250 / gop-lookahead=0 / bframes=4 / b-adapt=2 / b-pyramid / bframe-bias=0 / rc-lookahead=20 / lookahead-slices=6 / scenecut=40 / hist-scenecut=0 / radl=0 / no-splice / no-intra-refresh / ctu=64 / min-cu-size=8 / no-rect / no-amp / max-tu-size=32 / tu-inter-depth=1 / tu-intra-depth=1 / limit-tu=0 / rdoq-level=0 / dynamic-rd=0.00 / no-ssim-rd / signhide / no-tskip / nr-intra=0 / nr-inter=0 / no-constrained-intra / strong-intra-smoothing / max-merge=3 / limit-refs=1 / no-limit-modes / me=1 / subme=2 / merange=57 / temporal-mvp / no-frame-dup / no-hme / weightp / no-weightb / no-analyze-src-pics / deblock=0:0 / sao / no-sao-non-deblock / rd=3 / selective-sao=4 / early-skip / rskip / no-fast-intra / no-tskip-fast / no-cu-lossless / b-intra / no-splitrd-skip / rdpenalty=0 / psy-rd=2.00 / psy-rdoq=0.00 / no-rd-refine / no-lossless / cbqpoffs=0 / crqpoffs=0 / rc=abr / bitrate=4850 / qcomp=0.60 / qpstep=4 / stats-write=0 / stats-read=2 / cplxblur=20.0 / qblur=0.5 / ipratio=1.40 / pbratio=1.30 / aq-mode=2 / aq-strength=1.00 / cutree / zone-count=0 / no-strict-cbr / qg-size=32 / no-rc-grain / qpmax=69 / qpmin=0 / no-const-vbv / sar=1 / overscan=0 / videoformat=5 / range=0 / colorprim=2 / transfer=2 / colormatrix=2 / chromaloc=0 / display-window=0 / cll=0,0 / min-luma=0 / max-luma=1023 / log2-max-poc-lsb=8 / vui-timing-info / vui-hrd-info / slices=1 / no-opt-qp-pps / no-opt-ref-list-length-pps / no-multi-pass-opt-rps / scenecut-bias=0.05 / hist-threshold=0.03 / no-opt-cu-delta-qp / no-aq-motion / no-hdr10 / no-hdr10-opt / no-dhdr10-opt / no-idr-recovery-sei / analysis-reuse-level=0 / analysis-save-reuse-level=0 / analysis-load-reuse-level=0 / scale-factor=0 / refine-intra=0 / refine-inter=0 / refine-mv=1 / refine-ctu-distortion=0 / no-limit-sao / ctu-info=0 / no-lowpass-dct / refine-analysis-type=0 / copy-pic=1 / max-ausize-factor=1.0 / no-dynamic-refine / no-single-sei / no-hevc-aq / no-svt / no-field / qp-adaptation-range=1.00 / scenecut-aware-qp=0conformance-window-offsets / right=0 / bottom=0 / decoder-max-rate=0 / no-vbv-live-multi-pass
Default : Да
Forced : Нет

Аудио
Идентификатор : 2
Формат : AC-3
Формат/Информация : Audio Coding 3
Коммерческое название : Dolby Digital
Идентификатор кодека : A_AC3
Продолжительность : 1 ч. 33 м.
Вид битрейта : Постоянный
Битрейт : 192 Кбит/сек
Каналы : 2 канала
Channel layout : L R
Частота : 48,0 КГц
Частота кадров : 31,250 кадров/сек (1536 SPF)
Метод сжатия : С потерями
Размер потока : 128 Мбайт (4%)
Заголовок : Двухголосый (НТВ)
Язык : Russian
Service kind : Complete Main
Default : Нет
Forced : Нет

Текст
Идентификатор : 3
Формат : PGS
Режим смешивания : zlib
Идентификатор кодека : S_HDMV/PGS
Идентификатор кодека/Информация : Picture based subtitle format used on BDs/HD-DVDs
Язык : Russian
Default : Нет
Forced : Нет

Меню
00:00:00.000 : en:00:00:00.000
00:02:25.228 : en:00:02:25.228
00:03:41.763 : en:00:03:41.763
00:10:33.007 : en:00:10:33.007
00:14:20.026 : en:00:14:20.026
00:22:27.805 : en:00:22:27.805
00:27:16.301 : en:00:27:16.301
00:30:56.563 : en:00:30:56.563
00:36:40.824 : en:00:36:40.824
00:42:56.157 : en:00:42:56.157
00:50:28.359 : en:00:50:28.359
01:00:21.743 : en:01:00:21.743
01:09:52.980 : en:01:09:52.980
01:12:38.479 : en:01:12:38.479
01:18:25.075 : en:01:18:25.075
01:22:12.678 : en:01:22:12.678
01:25:09.062 : en:01:25:09.062
01:29:55.265 : en:01:29:55.265
скриншот  скриншот  скриншот  


© Оформление by DD2D3 piratbit.org



Скачать Ох уж эта наука! через торрент http://images.vfl.ru/ii/1637666124/17bf9101/36803369.jpg Скачать, смотреть онлайн Ох уж эта наука! бесплантно в хорошем качестве Описание: Вариант легенды о Франкештейне в этой вызывающей комедии. Наивный вундеркинд и его друг создают «идеальную женщину». Их создание ... 9.9 10 8
Торрент: Зарегистрирован [2021-11-23 11:30] · скачан: 35 раз
Статус: √ проверено
Размер: 3.31 GB
Как cкачать? Как скачать Ох уж эта наука! через торрент | UTorrent

% Раздел Тема Автор DL S | L
Фильмы до 2000 г. [ 704 MB ] Ох уж эта наука! / Weird Science [1985 DVDRip] MoNaZ Скачать
1 | 0


Последний раз редактировалось: dd2d3 (2021-11-25 17:11), всего редактировалось 1 раз

28-11-2019 20:33  

Отключить всю рекламу на сайте

23-11-2021 13:11 Ох уж эта наука! Скачать торрент  

скриншоты огонь piratbit.org



23-11-2021 17:38 Ох уж эта наука! Скачать торрент  

Спасибо за отличный фильм! Сразу вспомнил сериал "Чудеса науки" да было время, снимали фильмы с душой. Не то что сейчас, под копирку штопают.piratbit.org



    Дорогой пользователь! Огромная просьба, поблагодарите релизера, оцените раздачу и оставьте свои комментарий, если Вы скачали Ох уж эта наука! через торрент бесплатно!
    Комментировать посты могут только пользователи прошедшие не сложную регистрацию
    Показать сообщения:    

    Ох уж эта наука! через торрент
    Скачать бесплатно Ох уж эта наука!
    Ох уж эта наука! скачать торрент
    Ох уж эта наука! смотреть онлайн
    Cкачать фильм Ох уж эта наука! бесплатно
    Ох уж эта наука! скачать торрент в хорошем качестве
    Ох уж эта наука! смотреть онлайн бесплатно в хорошем качестве


    Вы не можете начинать темы
    Вы не можете отвечать на сообщения
    Вы не можете редактировать свои сообщения
    Вы не можете удалять свои сообщения
    Вы не можете голосовать в опросах
    Вы не можете прикреплять файлы к сообщениям
    Вы можете скачивать файлы