Присоединяйтесь к нам в Telegram!, здесь всегда актуальный адрес сайта, оперативная поддержка и многое другое!!

>

5.9

iTunes

7.4

iTunes

9.4

1 сезон

1

7.4

2 сезон

7.2

iTunes

7.3

iTunes

13

6.1

iTunes

8.3

Пиратка

30

ULTIMATE

pack

9.9

Лицензия

ВАЖНО

ИГРА 18+

pack

7.3

RePack

MK11

7.7

RePack

jed

7.8

RePack

fifa19

8.5

RePack

RDR2

RePack

NEED FOR SPEED™ PAYBACK

5 сезон

9 сезон

Бесстыжие 9 сезон

Все сериалы

все сериалы на PB.wtf

RePack

FAR CRY 5

Anonymous, доброй ночи, мы катастрофически не успеваем собрать деньги на оплату серверов, помогите нам пожалуйста 5,10,15р., для нас важна любая помощь . В качестве благодарности мы отключим Вам всю рекламу на сайте (укажите свой ник в строку Ваше имя)!

×
  
Magnet ссылка

Веном 2 / Venom: Let There Be Carnage (Энди Серкис) [2021, Фантастика, боевик, триллер, приключения, BDRip 720p] DUB [Кинопоиск HD (СинеЛаб СаундМикс)] piratbit.org

Веном 2 через торрент piratbit.org

Раздают: 6 [ 110 KB/s ]
Размер: 3.72 GB | Добавлен: 5 д. назад | Торрент скачан:124 раза
Смотреть онлайн Веном 2 | Скачать    Ребята, помогите собрать деньги на оплату серверов!!!

24-11-2021 02:41 Веном 2 Скачать торрент  

Веном 2 | Venom: Let There Be Carnage
Год выпуска: 2021
Страна: США, Великобритания, Канада
Выпущено: Marvel Entertainment, Pascal Pictures, Sony Pictures Entertainment (SPE)
Жанр: Фантастика, боевик, триллер, приключения
Продолжительность: 01:37:18
Перевод: Дублированный | Кинопоиск HD (СинеЛаб СаундМикс)
Субтитры: Русские (Forced, full), английские

Режиссер: Энди Серкис

rating

В ролях: Том Харди, Вуди Харрельсон, Мишель Уильямс, Наоми Харрис, Рид Скотт, Стивен Грэм, Пегги Лу, Сиан Уэббер, Мишель Гринидж, Роб Боуэн, Лоуренс Спеллман, Литтл Симз, Джек Бандейра, Олумиде Олорунфеми, Скробиус Пип, Амру Аль-Кадхи, Бо Сарджент, Брайан Коупленд, Стюарт Александр, Шон Делани

Описание: Эдди Брок пытается приспособиться к новой жизни, которую ему приходится делить с Веномом, поселившимся в его теле, мыслях и квартире. Но совместный быт не клеится, отношениям с Энн пришел конец, и с карьерой в журналистике тоже все не гладко. У Эдди появляется шанс реабилитироваться в профессии, сделав интервью с серийным убийцей Клетусом Кэссиди. Когда Кэссиди тоже становится носителем инопланетного симбиота, Брок и Веном вынуждены забыть старые обиды, чтобы выступить против еще более сильного и кровожадного монстра — Карнажа.

Качество: BDRip 720p
Формат: MKV

Видео: MPEG-4 AVC, 3929 Kb/s, 1280x692, 23.976 fps
Аудио #01: 48 kHz, AC3, 5.1, 448 Kbps | Дублированный | Кинопоиск HD (СинеЛаб СаундМикс) | RUS |
Аудио #02: 48 kHz, E-AC3, 5.1, 448 Kbps | Дублированный | Кинопоиск HD (СинеЛаб СаундМикс) | RUS |
Аудио #03: 48 kHz, AC3, 5.1, 640 Kbps | Оригинал | ENG |
скриншот  скриншот  скриншот  скриншот  

Complete name : Venom.2.2021.BDRip.720p.ELEKTRI4KA.UNIONGANG.mkv
Format : Matroska
Format version : Version 4
File size : 3.72 GiB
Duration : 1 h 37 min
Overall bit rate : 5 465 kb/s
Movie name : Venom.2.2021.BDRip.720p.ELEKTRI4KA.UNIONGANG.
Encoded date : UTC 2021-12-03 18:09:01
Writing application : mkvmerge v8.3.0 ('Over the Horizon') 32bit
Writing library : libebml v1.3.1 + libmatroska v1.4.2

Video
ID : 1
Format : AVC
Format/Info : Advanced Video Codec
Format profile : High@L4.1
Format settings : CABAC / 9 Ref Frames
Format settings, CABAC : Yes
Format settings, Reference frames : 9 frames
Codec ID : V_MPEG4/ISO/AVC
Duration : 1 h 37 min
Bit rate : 3 929 kb/s
Width : 1 280 pixels
Height : 692 pixels
Display aspect ratio : 1.85:1
Frame rate mode : Constant
Frame rate : 23.976 (24000/1001) FPS
Color space : YUV
Chroma subsampling : 4:2:0
Bit depth : 8 bits
Scan type : Progressive
Bits/(Pixel*Frame) : 0.185
Stream size : 2.67 GiB (72%)
Writing library : x264 core 157 r2938 2b00a84 TnP@MTeam Mod
Encoding settings : cabac=1 / ref=9 / deblock=1:-3:-3 / analyse=0x3:0x133 / me=umh / subme=10 / psy=1 / psy_rd=1.05:0.00 / mixed_ref=1 / me_range=32 / chroma_me=1 / trellis=2 / 8x8dct=1 / cqm=0 / deadzone=21,11 / fast_pskip=0 / chroma_qp_offset=-2 / threads=12 / lookahead_threads=2 / sliced_threads=0 / nr=0 / decimate=0 / interlaced=0 / bluray_compat=0 / constrained_intra=0 / bframes=8 / b_pyramid=2 / b_adapt=2 / b_bias=0 / direct=3 / weightb=1 / open_gop=0 / weightp=2 / keyint=250 / keyint_min=24 / scenecut=40 / intra_refresh=0 / rc_lookahead=250 / rc=crf / mbtree=0 / crf=16.8 / qcomp=0.60 / qpmin=0 / qpmax=69 / qpstep=4 / vbv_maxrate=62500 / vbv_bufsize=78125 / crf_max=0.0 / nal_hrd=none / filler=0 / ip_ratio=1.30 / pb_ratio=1.20 / aq=3:0.80
Language : English
Default : Yes
Forced : No
Color range : Limited
Color primaries : BT.709
Matrix coefficients : BT.709

Audio #1
ID : 2
Format : AC-3
Format/Info : Audio Coding 3
Commercial name : Dolby Digital
Codec ID : A_AC3
Duration : 1 h 37 min
Bit rate mode : Constant
Bit rate : 448 kb/s
Channel(s) : 6 channels
Channel layout : L R C LFE Ls Rs
Sampling rate : 48.0 kHz
Frame rate : 31.250 FPS (1536 SPF)
Compression mode : Lossy
Stream size : 312 MiB (8%)
Title : DUB AC3 (Kinopoisk HD)
Language : Russian
Service kind : Complete Main
Default : Yes
Forced : Yes

Audio #2
ID : 3
Format : AC-3
Format/Info : Audio Coding 3
Commercial name : Dolby Digital
Codec ID : A_AC3
Duration : 1 h 37 min
Bit rate mode : Constant
Bit rate : 448 kb/s
Channel(s) : 6 channels
Channel layout : L R C LFE Ls Rs
Sampling rate : 48.0 kHz
Frame rate : 31.250 FPS (1536 SPF)
Compression mode : Lossy
Stream size : 312 MiB (8%)
Title : DUB EAC3 (Kinopoisk HD)
Language : Russian
Service kind : Complete Main
Default : No
Forced : No

Audio #3
ID : 4
Format : AC-3
Format/Info : Audio Coding 3
Commercial name : Dolby Digital
Codec ID : A_AC3
Duration : 1 h 37 min
Bit rate mode : Constant
Bit rate : 640 kb/s
Channel(s) : 6 channels
Channel layout : L R C LFE Ls Rs
Sampling rate : 48.0 kHz
Frame rate : 31.250 FPS (1536 SPF)
Compression mode : Lossy
Stream size : 445 MiB (12%)
Title : Origunal
Language : English
Service kind : Complete Main
Default : No
Forced : No

Text #1
ID : 5
Format : UTF-8
Codec ID : S_TEXT/UTF8
Codec ID/Info : UTF-8 Plain Text
Duration : 10 min 25 s
Bit rate : 3 b/s
Count of elements : 7
Stream size : 246 Bytes (0%)
Title : Forced
Language : Russian
Default : Yes
Forced : Yes

Text #2
ID : 6
Format : UTF-8
Codec ID : S_TEXT/UTF8
Codec ID/Info : UTF-8 Plain Text
Duration : 1 h 36 min
Bit rate : 72 b/s
Count of elements : 1086
Stream size : 50.7 KiB (0%)
Title : Full
Language : Russian
Default : No
Forced : No

Text #3
ID : 7
Format : UTF-8
Codec ID : S_TEXT/UTF8
Codec ID/Info : UTF-8 Plain Text
Duration : 1 h 35 min
Bit rate : 60 b/s
Count of elements : 1495
Stream size : 42.3 KiB (0%)
Title : Full
Language : English
Default : No
Forced : No

Text #4
ID : 8
Format : UTF-8
Codec ID : S_TEXT/UTF8
Codec ID/Info : UTF-8 Plain Text
Duration : 1 h 36 min
Bit rate : 71 b/s
Count of elements : 1860
Stream size : 50.5 KiB (0%)
Title : SDH
Language : English
Default : No
Forced : No

Menu
00:00:00.000 : en:Chapter 01
00:05:24.991 : en:Chapter 02
00:09:33.239 : en:Chapter 03
00:12:20.406 : en:Chapter 04
00:18:23.436 : en:Chapter 05
00:23:01.213 : en:Chapter 06
00:30:17.858 : en:Chapter 07
00:35:03.601 : en:Chapter 08
00:39:26.781 : en:Chapter 09
00:45:35.066 : en:Chapter 10
00:50:40.329 : en:Chapter 11
00:55:29.826 : en:Chapter 12
01:01:01.032 : en:Chapter 13
01:06:57.639 : en:Chapter 14
01:14:36.681 : en:Chapter 15
01:21:57.579 : en:Chapter 16

piratbit.org



Скачать Веном 2 через торрент https://b.radikal.ru/b42/2111/5f/70260b99aaa0.jpg Скачать, смотреть онлайн Веном 2 бесплантно в хорошем качестве Описание: Эдди Брок пытается приспособиться к новой жизни, которую ему приходится делить с Веномом, поселившимся в его теле, мыслях и ... 8.8 10 17
Торрент: Зарегистрирован [2021-12-03 18:54] · скачан: 124 раз
Статус: √ проверено
Размер: 3.72 GB
Как cкачать? Как скачать Веном 2 через торрент | UTorrent

% Раздел Тема Автор DL S | L
Фильмы 2021 [DVDrip, WEB-DLRip, HDrip] (DUB, MVO) [ 1.46 GB ] Веном 2 / Venom: Let There Be Carnage [2021 BDRip] - [ / Кинопоиск HD] Twi7ter Скачать
248 | 31
Фильмы 2021 [DVDrip, WEB-DLRip, HDrip] (DUB, MVO) [ 746 MB ] Веном 2 / Venom: Let There Be Carnage [2021 BDRip] DUB [Кинопоиск HD ] bober100 Скачать
2 | 0
Фильмы (Blu-ray, BD-Remux, HDDVD) [ 19.08 GB ] Веном 2 / Venom: Let There Be Carnage [2021 BD Remux 1080p] DUB [Кинопоиск HD ] bober100 Скачать
9 | 0
Фильмы 2021 [DVDrip, WEB-DLRip, HDrip] (DUB, MVO) [ 1.45 GB ] Веном 2 / Venom: Let There Be Carnage [2021 WEB-DLRip-AVC] bober100 Скачать
7 | 0
Фильмы 2021 [DVDrip, WEB-DLRip, HDrip] (DUB, MVO) [ 1.8 GB ] Веном 2 / Venom: Let There Be Carnage [2021 HDRip-AVC] DUB [Кинопоиск HD] от ExKinoRay Lithuania Скачать
6 | 0
Фильмы [HD 720p, 1080p] (Хороший звук DUB, MVO) [ 8.4 GB ] Веном 2 / Venom: Let There Be Carnage [2021 BDRip 1080p] DUB [Кинопоиск HD ] bober100 Скачать
17 | 0
Фильмы с украинским озвучиванием [ 5.1 GB ] Веном 2 / Веном 2: Карнаж / Venom: Let There Be Carnage [2021 WEB-DL 1080p] [Ukr DUB] killermax2013 Скачать
4 | 0

28-11-2019 20:33  

Отключить всю рекламу на сайте

    Дорогой пользователь! Огромная просьба, поблагодарите релизера, оцените раздачу и оставьте свои комментарий, если Вы скачали Веном 2 через торрент бесплатно!
    Комментировать посты могут только пользователи прошедшие не сложную регистрацию
    Показать сообщения:    

    Веном 2 через торрент
    Скачать бесплатно Веном 2
    Веном 2 скачать торрент
    Веном 2 смотреть онлайн
    Cкачать фильм Веном 2 бесплатно
    Веном 2 скачать торрент в хорошем качестве
    Веном 2 смотреть онлайн бесплатно в хорошем качестве


    Вы не можете начинать темы
    Вы не можете отвечать на сообщения
    Вы не можете редактировать свои сообщения
    Вы не можете удалять свои сообщения
    Вы не можете голосовать в опросах
    Вы не можете прикреплять файлы к сообщениям
    Вы можете скачивать файлы