Присоединяйтесь к нам в Telegram!, здесь всегда актуальный адрес сайта, оперативная поддержка и многое другое!!

>

5.9

iTunes

7.4

iTunes

9.4

1 сезон

1

7.4

2 сезон

7.2

iTunes

7.3

iTunes

13

6.1

iTunes

8.3

Пиратка

30

ULTIMATE

pack

9.9

Лицензия

ВАЖНО

ИГРА 18+

pack

7.3

RePack

MK11

7.7

RePack

jed

7.8

RePack

fifa19

8.5

RePack

RDR2

RePack

NEED FOR SPEED™ PAYBACK

5 сезон

9 сезон

Бесстыжие 9 сезон

Все сериалы

все сериалы на PB.wtf

RePack

FAR CRY 5

Anonymous, доброй ночи, мы катастрофически не успеваем собрать деньги на оплату серверов, помогите нам пожалуйста 5,10,15р., для нас важна любая помощь . В качестве благодарности мы отключим Вам всю рекламу на сайте (укажите свой ник в строку Ваше имя)!

×
  
Magnet ссылка

Шершни / Yellowjackets / Сезон: 1 / Серии: 1-4 из 10 (Эва Сёрхёуг, Карин Кусама, Дипа Мехта) [2021, Ужасы, триллер, драма, детектив, WEB-DL 1080p] MVO [HDRezka Studio] piratbit.org

Шершни через торрент piratbit.org

Раздают: 1 [ 0 KB/s ]
Размер: 13.24 GB | Добавлен: 1 д. 16 ч. назад | Торрент скачан:3 раза
Смотреть онлайн Шершни | Скачать    Ребята, помогите собрать деньги на оплату серверов!!!

24-11-2021 03:34 Шершни Скачать торрент  

Шершни | Yellowjackets
Год выпуска: 2021
Страна: США
Выпущено: Showtime, eOne, Beer Christmas Ltd., Lock Jaw
Жанр: Ужасы, триллер, драма, детектив
Продолжительность: ~ 00:57:00
Перевод: Профессиональный (многоголосый) | HDRezka Studio
Субтитры: Русские (Forcedl), английские

Режиссер: Эва Сёрхёуг, Карин Кусама, Дипа Мехта

rating

В ролях: Кристина Риччи, Джульетт Льюис, Мелани Лински, Софи Тэтчер, Тони Сайпресс, Элла Пёрнелл, Сэмми Ханратти, Стивен Крюгер, Кия Кинг, Уоррен Коул, Софи Нелисс

Описание: Женская школьная команда по футболу терпит крушение на самолёте в лесах Онтарио. Пока идут поиски, с выживших медленно слезает налёт цивилизации. Из слаженной команды они превращаются в разрозненные кланы каннибалов.

Качество: WEBRip 1080p
Формат: MKV

Видео: AVC, 1920x1080 (16:9), 7906 kbps (0.159 b/px), 23.976 fps
Аудио : AC3, 448 kbps (CBR), 48.0 KHz (16 bits), 6 ch - Rus ([HDRezka Studio)
Аудио : E-AC3, 640 kbps (CBR), 48.0 KHz, 6 ch - Eng
скриншот  скриншот  скриншот  скриншот  

Общее
Уникальный идентификатор : 158370504763530946691411122269296612538 (0x77250CBBF815B73D896E84A4DCD954BA)
Полное имя : D:Yellowjackets.S01E01.Pilot.1080p.mkv
Формат : Matroska
Версия формата : Version 4
Размер файла : 3,59 Гбайт
Продолжительность : 57 м. 4 с.
Общий поток : 8 996 Кбит/сек
Название фильма : Yellowjackets.S01E01.WEB-DL(1080p)
Дата кодирования : UTC 2021-11-08 09:46:18
Программа кодирования : mkvmerge v35.0.0 ('All The Love In The World') 64-bit
Библиотека кодирования : libebml v1.3.9 + libmatroska v1.5.2

Видео
Идентификатор : 1
Формат : AVC
Формат/Информация : Advanced Video Codec
Профиль формата : High@L4
Настройки формата : CABAC / 4 Ref Frames
Параметр CABAC формата : Да
Параметр RefFrames формата : 4 кадра
Идентификатор кодека : V_MPEG4/ISO/AVC
Продолжительность : 57 м. 4 с.
Вид битрейта : Постоянный
Битрейт : 7 906 Кбит/сек
Номинальный битрейт : 10 000 Кбит/сек
Ширина : 1 920 пикселей
Высота : 1 080 пикселей
Соотношение сторон : 16:9
Режим частоты кадров : Постоянный
Частота кадров : 23,976 (24000/1001) кадра/сек
Цветовое пространство : YUV
Субдискретизация насыщенности : 4:2:0
Битовая глубина : 8 бит
Тип развёртки : Прогрессивная
Бит/(Пиксели*Кадры) : 0.159
Размер потока : 3,15 Гбайт (88%)
Default : Да
Forced : Нет
Цветовой диапазон : Limited
Основные цвета : BT.709
Характеристики трансфера : BT.709
Коэффициенты матрицы : BT.709

Аудио #1
Идентификатор : 2
Формат : AC-3
Формат/Информация : Audio Coding 3
Коммерческое название : Dolby Digital
Идентификатор кодека : A_AC3
Продолжительность : 57 м. 4 с.
Вид битрейта : Постоянный
Битрейт : 448 Кбит/сек
Каналы : 6 каналов
Channel layout : L R C LFE Ls Rs
Частота : 48,0 КГц
Частота кадров : 31,250 кадров/сек (1536 SPF)
Метод сжатия : С потерями
Размер потока : 183 Мбайт (5%)
Заголовок : HDRezka Studio
Язык : Russian
Service kind : Complete Main
Default : Да
Forced : Нет

Аудио #2
Идентификатор : 3
Формат : E-AC-3
Формат/Информация : Enhanced AC-3
Коммерческое название : Dolby Digital Plus
Идентификатор кодека : A_EAC3
Продолжительность : 57 м. 4 с.
Вид битрейта : Постоянный
Битрейт : 640 Кбит/сек
Каналы : 6 каналов
Channel layout : L R C LFE Ls Rs
Частота : 48,0 КГц
Частота кадров : 31,250 кадров/сек (1536 SPF)
Метод сжатия : С потерями
Задержка видео : 18 мс.
Размер потока : 261 Мбайт (7%)
Язык : English
Service kind : Complete Main
Default : Нет
Forced : Нет

Текст #1
Идентификатор : 4
Формат : UTF-8
Идентификатор кодека : S_TEXT/UTF8
Идентификатор кодека/Информация : UTF-8 Plain Text
Продолжительность : 52 м. 46 с.
Битрейт : 4 бит/сек
Count of elements : 32
Размер потока : 1,79 Кбайт (0%)
Заголовок : rus (forced)
Язык : Russian
Default : Да
Forced : Нет

Текст #2
Идентификатор : 5
Формат : UTF-8
Идентификатор кодека : S_TEXT/UTF8
Идентификатор кодека/Информация : UTF-8 Plain Text
Продолжительность : 54 м. 50 с.
Битрейт : 72 бит/сек
Count of elements : 937
Размер потока : 29,1 Кбайт (0%)
Язык : English
Default : Нет
Forced : Нет

Текст #3
Идентификатор : 6
Формат : UTF-8
Идентификатор кодека : S_TEXT/UTF8
Идентификатор кодека/Информация : UTF-8 Plain Text
Продолжительность : 54 м. 50 с.
Битрейт : 92 бит/сек
Count of elements : 1075
Размер потока : 37,2 Кбайт (0%)
Заголовок : SDH
Язык : English
Default : Нет
Forced : Нет

Раздача ведётся путём добавления новых серий, при каждом добавлении создаётся новый торрент. Чтобы начать докачку новой серии, пользователям необходимо сделать следующее:
- Остановить скачивание.
- Удалить старый торрент у себя из клиента (старые серии удалять не надо).
- Скачать новый торрент и запустить его у себя в клиенте вместо старого, при этом указать клиенту путь в старую папку куда и должно происходить скачивание новых серий.
Ваш клиент при этом должен произвести хеширование (проверку) старой папки (если не производит сам - помогите ему сделать это), и будет докачивать только те серии которых у вас ещё нет. Старые серии при этом не удаляются, а продолжают раздаваться!
piratbit.org



Скачать Шершни через торрент https://i4.imageban.ru/out/2021/11/22/211977d4b19d59c19471aa591e54bec6.png Скачать, смотреть онлайн Шершни бесплантно в хорошем качестве Описание: Женская школьная команда по футболу терпит крушение на самолёте в лесах Онтарио. Пока идут поиски, с выживших медленно слезает ... 7 10 6
Торрент: Зарегистрирован [2021-12-07 11:26] · скачан: 3 раз
Статус: √ проверено
Размер: 13.24 GB
Как cкачать? Как скачать Шершни через торрент | UTorrent

% Раздел Тема Автор DL S | L
Зарубежные сериалы [ 14.36 GB ] Шершни / Yellowjackets / Сезон: 1 / Серии: 1-4 из 10 [2021 WEB-DL 1080p] 3xMVO [TVShows HDRezka Studio Кравец-Рекордз] bober100 Скачать
2 | 1
Зарубежные сериалы [ 7.32 GB ] Шершни / Yellowjackets / Сезон: 1 / Серии: 1-4 из 10 [2021 WEB-DL 720p] [MVO] killermax2013 Скачать
4 | 0


Последний раз редактировалось: bober100 (2021-12-07 11:26), всего редактировалось 3 раз(а)

28-11-2019 20:33  

Отключить всю рекламу на сайте

24-11-2021 11:20 Шершни Скачать торрент  

Походу сценарист реализовал в книге свои подростковые мечты неудачника ?piratbit.org



    Дорогой пользователь! Огромная просьба, поблагодарите релизера, оцените раздачу и оставьте свои комментарий, если Вы скачали Шершни через торрент бесплатно!
    Комментировать посты могут только пользователи прошедшие не сложную регистрацию
    Показать сообщения:    

    Шершни через торрент
    Скачать бесплатно Шершни
    Шершни скачать торрент
    Шершни смотреть онлайн
    Cкачать фильм Шершни бесплатно
    Шершни скачать торрент в хорошем качестве
    Шершни смотреть онлайн бесплатно в хорошем качестве


    Вы не можете начинать темы
    Вы не можете отвечать на сообщения
    Вы не можете редактировать свои сообщения
    Вы не можете удалять свои сообщения
    Вы не можете голосовать в опросах
    Вы не можете прикреплять файлы к сообщениям
    Вы можете скачивать файлы