Присоединяйтесь к нам в Telegram!, здесь всегда актуальный адрес сайта, оперативная поддержка и многое другое!!

>

5.9

iTunes

7.4

iTunes

9.4

1 сезон

1

7.4

2 сезон

7.2

iTunes

7.3

1 сезон

13

6.1

iTunes

8.3

Пиратка

30

ULTIMATE

pack

9.9

Лицензия

ВАЖНО

ИГРА 18+

pack

7.3

RePack

MK11

7.7

RePack

jed

7.8

RePack

fifa19

8.5

RePack

RDR2

RePack

NEED FOR SPEED™ PAYBACK

5 сезон

9 сезон

Бесстыжие 9 сезон

Все сериалы

все сериалы на PB.wtf

RePack

FAR CRY 5

Anonymous, доброй ночи, мы катастрофически не успеваем собрать деньги на оплату серверов, помогите нам пожалуйста 5,10,15р., для нас важна любая помощь . В качестве благодарности мы отключим Вам всю рекламу на сайте (укажите свой ник в строку Ваше имя)!

×
  
Magnet ссылка

Мальчик по имени Рождество / A Boy Called Christmas (Гил Кинан) [2021, Фэнтези, драма, приключения, семейный, WEB-DL 1080p] DUB [Пифагор / Netflix] piratbit.org

Мальчик по имени Рождество через торрент piratbit.org

Раздают: 12 [ 57 KB/s ]
Размер: 4.35 GB | Добавлен: 10 д. назад | Торрент скачан:174 раза
Смотреть онлайн Мальчик по имени Рождество | Скачать    Ребята, помогите собрать деньги на оплату серверов!!!

24-11-2021 08:21 Мальчик по имени Рождество Скачать торрент  

Мальчик по имени Рождество | A Boy Called Christmas
Год выпуска: 2021
Страна: Великобритания, Франция
Выпущено: Blueprint Pictures, Canal+ [fr], Ciné, Netflix, Studio Canal
Жанр: Фэнтези, драма, приключения, семейный
Продолжительность: 01:45:22
Перевод: Дублированный | Пифагор по заказу Netflix
Субтитры: Русские (Forced, full), украинские (Full), английские

Режиссер: Гил Кинан

rating

В ролях: Кристен Уиг, Микил Хаусмен, Мэгги Смит, Зои Маргарет Коллетти, Салли Хокинс, Джим Бродбент, Тоби Джонс, Рюн Темт, Индика Уотсон, Синед Фелпс, Абиола Огунбийи

Описание: «Мальчик по имени Рождество» — это история о приключениях юного Николаса, которому суждено стать символом главного христианского праздника. Прежде чем получить известность под именем Санта-Клауса, Николас был самым обычным мальчиком, который рос в бедной семье. Однажды его отец пропал, и герой отправился на Северный полюс, чтобы спасти его. Так он открыл для себя волшебный мир и вернул деревне эльфов дух Рождества.

Качество: WEB-DL 1080p
Формат: MKV

Видео: MPEG-4 AVC, 1920x1080, 4870 Kbit/s, 24.000 fps
Аудио #01: 48 kHz, E-AC3, 5.1, 640 Kbps | Дублированный | Netflix | RUS |
Аудио #02: 48 kHz, AC3, 5.1, 640 Kbps | Дублированный | Netflix | RUS |
Аудио #03: 48 kHz, E-AC3+Atmos, 5.1, 768 Kbps | ENG |
скриншот  скриншот  скриншот  скриншот  скриншот  

General
Unique ID : 191140266948940007543203209298053859228 (0x8FCC46C027056CF3DB153F25990A879C)
Complete name : E:VideoA.Boy.Called.Christmas.2021.NF.WEB-DL.1080p.seleZen.mkv
Format : Matroska
Format version : Version 4
File size : 4.35 GiB
Duration : 1 h 46 min
Overall bit rate mode : Variable
Overall bit rate : 5 840 kb/s
Movie name : A Boy Called Christmas 2021 from seleZen
Encoded date : UTC 2021-11-24 08:09:05
Writing application : mkvmerge v59.0.0 ('Shining Star') 64-bit
Writing library : libebml v1.4.2 + libmatroska v1.6.4

Video
ID : 1
Format : AVC
Format/Info : Advanced Video Codec
Format profile : Main@L4
Format settings : CABAC / 3 Ref Frames
Format settings, CABAC : Yes
Format settings, Reference frames : 3 frames
Codec ID : V_MPEG4/ISO/AVC
Duration : 1 h 46 min
Bit rate mode : Variable
Bit rate : 3 789 kb/s
Nominal bit rate : 4 870 kb/s
Maximum bit rate : 7 305 kb/s
Width : 1 920 pixels
Height : 1 080 pixels
Display aspect ratio : 16:9
Frame rate mode : Constant
Frame rate : 24.000 FPS
Color space : YUV
Chroma subsampling : 4:2:0
Bit depth : 8 bits
Scan type : Progressive
Bits/(Pixel*Frame) : 0.076
Stream size : 2.83 GiB (65%)
Writing library : x264 core 148 r2724 dbe0335
Encoding settings : cabac=1 / ref=3 / deblock=1:0:0 / analyse=0x1:0x111 / me=umh / subme=10 / psy=1 / psy_rd=1.00:0.00 / mixed_ref=1 / me_range=24 / chroma_me=1 / trellis=2 / 8x8dct=0 / cqm=0 / deadzone=21,11 / fast_pskip=1 / chroma_qp_offset=-2 / threads=6 / lookahead_threads=1 / sliced_threads=0 / nr=0 / decimate=1 / interlaced=0 / bluray_compat=0 / stitchable=1 / constrained_intra=0 / bframes=2 / b_pyramid=0 / b_adapt=2 / b_bias=0 / direct=3 / weightb=1 / open_gop=0 / weightp=2 / keyint=250 / keyint_min=24 / scenecut=0 / intra_refresh=0 / rc_lookahead=48 / rc=2pass / mbtree=1 / bitrate=4870 / ratetol=1.0 / qcomp=0.50 / qpmin=6 / qpmax=51 / qpstep=4 / cplxblur=20.0 / qblur=0.5 / vbv_maxrate=7305 / vbv_bufsize=9740 / nal_hrd=vbr / filler=0 / ip_ratio=1.40 / aq=1:1.00
Language : English
Default : Yes
Forced : No

Audio #1
ID : 2
Format : E-AC-3
Format/Info : Enhanced AC-3
Commercial name : Dolby Digital Plus
Codec ID : A_EAC3
Duration : 1 h 46 min
Bit rate mode : Constant
Bit rate : 640 kb/s
Channel(s) : 6 channels
Channel layout : L R C LFE Ls Rs
Sampling rate : 48.0 kHz
Frame rate : 31.250 FPS (1536 SPF)
Compression mode : Lossy
Stream size : 489 MiB (11%)
Title : Netflix
Language : Russian
Service kind : Complete Main
Default : Yes
Forced : Yes

Audio #2
ID : 3
Format : AC-3
Format/Info : Audio Coding 3
Commercial name : Dolby Digital
Codec ID : A_AC3
Duration : 1 h 46 min
Bit rate mode : Constant
Bit rate : 640 kb/s
Channel(s) : 6 channels
Channel layout : L R C LFE Ls Rs
Sampling rate : 48.0 kHz
Frame rate : 31.250 FPS (1536 SPF)
Compression mode : Lossy
Stream size : 489 MiB (11%)
Title : Netflix
Language : Russian
Service kind : Complete Main
Default : No
Forced : No

Audio #3
ID : 4
Format : E-AC-3 JOC
Format/Info : Enhanced AC-3 with Joint Object Coding
Commercial name : Dolby Digital Plus with Dolby Atmos
Codec ID : A_EAC3
Duration : 1 h 46 min
Bit rate mode : Constant
Bit rate : 768 kb/s
Channel(s) : 6 channels
Channel layout : L R C LFE Ls Rs
Sampling rate : 48.0 kHz
Frame rate : 31.250 FPS (1536 SPF)
Compression mode : Lossy
Stream size : 586 MiB (13%)
Title : English
Language : English
Service kind : Complete Main
Default : No
Forced : No
Complexity index : 16
Number of dynamic objects : 15
Bed channel count : 1 channel
Bed channel configuration : LFE

Text #1
ID : 5
Format : UTF-8
Codec ID : S_TEXT/UTF8
Codec ID/Info : UTF-8 Plain Text
Duration : 1 h 42 min
Bit rate : 0 b/s
Count of elements : 6
Stream size : 309 Bytes (0%)
Title : Forced
Language : Russian
Default : Yes
Forced : Yes

Text #2
ID : 6
Format : UTF-8
Codec ID : S_TEXT/UTF8
Codec ID/Info : UTF-8 Plain Text
Duration : 1 h 41 min
Bit rate : 67 b/s
Count of elements : 1638
Stream size : 50.3 KiB (0%)
Title : English (SDH)
Language : English
Default : No
Forced : No

Text #3
ID : 7
Format : UTF-8
Codec ID : S_TEXT/UTF8
Codec ID/Info : UTF-8 Plain Text
Duration : 1 h 42 min
Bit rate : 78 b/s
Count of elements : 1212
Stream size : 59.1 KiB (0%)
Title : Full
Language : Russian
Default : No
Forced : No

Text #4
ID : 8
Format : UTF-8
Codec ID : S_TEXT/UTF8
Codec ID/Info : UTF-8 Plain Text
Duration : 1 h 42 min
Bit rate : 78 b/s
Count of elements : 1178
Stream size : 59.3 KiB (0%)
Title : Ukrainian
Language : Ukrainian
Default : No
Forced : No

piratbit.org



Скачать Мальчик по имени Рождество через торрент https://i116.fastpic.org/big/2021/1124/de/d118539d7055c9eef787ec1370e34fde.jpg Скачать, смотреть онлайн Мальчик по имени Рождество бесплантно в хорошем качестве Описание: «Мальчик по имени Рождество» — это история о приключениях юного Николаса, которому суждено стать символом главного христианского ... 8.6 10 8
Торрент: Зарегистрирован [2021-11-24 08:21] · скачан: 174 раз
Статус: √ проверено
Размер: 4.35 GB
Как cкачать? Как скачать Мальчик по имени Рождество через торрент | UTorrent

% Раздел Тема Автор DL S | L
Фильмы 2021 [DVDrip, WEB-DLRip, HDrip] (DUB, MVO) [ 2.01 GB ] Мальчик по имени Рождество / A Boy Called Christmas [2021 WEB-DLRip-AVC] DUB [Netflix] от ExKinoRay Lithuania Скачать
3 | 0
Фильмы 2021 [DVDrip, WEB-DLRip, HDrip] (DUB, MVO) [ 1.46 GB ] Мальчик по имени Рождество / A Boy Called Christmas [2021 WEB-DLRip] - [ / Netflix] Twi7ter Скачать
49 | 4
Фильмы 2021 [DVDrip, WEB-DLRip, HDrip] (DUB, MVO) [ 1.9 GB ] Мальчик по имени Рождество / A Boy Called Christmas [2021 WEB-DLRip-AVC] DUB [Пифагор / Netflix] bober100 Скачать
4 | 0
Фильмы 2021 [DVDrip, WEB-DLRip, HDrip] (DUB, MVO) [ 1.46 GB ] Мальчик по имени Рождество / A Boy Called Christmas [2021 WEB-DLRip] DUB [Пифагор / Netflix] bober100 Скачать
4 | 0

28-11-2019 20:33  

Отключить всю рекламу на сайте

    Дорогой пользователь! Огромная просьба, поблагодарите релизера, оцените раздачу и оставьте свои комментарий, если Вы скачали Мальчик по имени Рождество через торрент бесплатно!
    Комментировать посты могут только пользователи прошедшие не сложную регистрацию
    Показать сообщения:    

    Мальчик по имени Рождество через торрент
    Скачать бесплатно Мальчик по имени Рождество
    Мальчик по имени Рождество скачать торрент
    Мальчик по имени Рождество смотреть онлайн
    Cкачать фильм Мальчик по имени Рождество бесплатно
    Мальчик по имени Рождество скачать торрент в хорошем качестве
    Мальчик по имени Рождество смотреть онлайн бесплатно в хорошем качестве


    Вы не можете начинать темы
    Вы не можете отвечать на сообщения
    Вы не можете редактировать свои сообщения
    Вы не можете удалять свои сообщения
    Вы не можете голосовать в опросах
    Вы не можете прикреплять файлы к сообщениям
    Вы можете скачивать файлы