Присоединяйтесь к нам в Telegram!, здесь всегда актуальный адрес сайта, оперативная поддержка и многое другое!!

>

5.9

iTunes

7.4

iTunes

9.4

1 сезон

1

7.4

2 сезон

7.2

iTunes

7.3

1 сезон

13

6.1

iTunes

8.3

Пиратка

30

ULTIMATE

pack

9.9

Лицензия

ВАЖНО

ИГРА 18+

pack

7.3

RePack

MK11

7.7

RePack

jed

7.8

RePack

fifa19

8.5

RePack

RDR2

RePack

NEED FOR SPEED™ PAYBACK

5 сезон

9 сезон

Бесстыжие 9 сезон

Все сериалы

все сериалы на PB.wtf

RePack

FAR CRY 5

Anonymous, доброй ночи, мы катастрофически не успеваем собрать деньги на оплату серверов, помогите нам пожалуйста 5,10,15р., для нас важна любая помощь . В качестве благодарности мы отключим Вам всю рекламу на сайте (укажите свой ник в строку Ваше имя)!

×
  
Magnet ссылка

Одинокие стрелки / The Lone Gunmen [2001 г., фантастика, триллер, драма, комедия, детектив, DVDRip на КПК] [Профессиональный (одноголосный) | Кравец] piratbit.org

Одинокие стрелки через торрент piratbit.org

Размер: 3.92 GB | Добавлен: 10 д. назад | Торрент скачан:4 раза
Смотреть онлайн Одинокие стрелки | Скачать    Ребята, помогите собрать деньги на оплату серверов!!!

24-11-2021 09:12 Одинокие стрелки Скачать торрент  

Одинокие стрелки / The Lone Gunmen

Год выпуска: 2001

Страна: Канада, США
Жанр: фантастика, триллер, драма, комедия, детектив
Продолжительность: 14х ~00:45:00
Перевод: Профессиональный (одноголосный) | Кравец Андрей
Субтитры: нет
Оригинальная аудиодорожка: нет

Режиссер: Брайан Спайсер / Bryan Spicer, Ричард Комптон / Richard Compton, Кэрол Бенкер / Carol Banker
В ролях: Брюс Харвуд, Том Брэйдвуд, Дин Хэглунд, Зулейха Робинсон, Стефен Снедден, Джим Файф, Майкл Эклунд, Билли Митчелл, Эрик Поспишил, Джордж Коу

Описание: Продолжение успешного телесериала X-Files о трёх помешанных на всевозможных заговорах хакерах, более известные как группа Одинокие стрелки, выходят на первый план в своем собственном сериале. Никогда не унывающие от правительственных интриг Байерс, Фрохики и Лэнгли продолжают свои комические похождения. Раскрывая самые темные заговоры, пренебрегая своей личной жизнью, Стрелки обнаруживают, что их главный конкурент по «информационному бизнесу» — умная и красивая Ив Адель Харлоу. В поисках спонсоров для издания газеты «Одинокий стрелок» Байерс, Фрохики и Лэнгли принимают в свой круг Джимми Бонда, который оказывает финансовую поддержку их миссии и присоединяется к ним в поисках правды.



Релиз от:
Рип от: Страна

Качество: DVDRip
Формат: MP4
Видео: AVC, 640x360, 770 kbps, 29,970 fps
Аудио: AAC, 2 ch, 48,0 kHz, 128 Kbps
Общее
Полное имя : D:\Кино\Lone gunmen 640х\1x01 Pilot.mp4
Формат : MPEG-4
Профиль формата : Base Media
Идентификатор кодека : isom
Размер файла : 287 Мбайт
Продолжительность : 44 м.
Режим общего битрейта : Переменный
Общий поток : 902 Кбит/сек
Дата кодирования : UTC 2021-11-23 06:05:08
Дата пометки : UTC 2021-11-23 06:05:08

Видео
Идентификатор : 1
Формат : AVC
Формат/Информация : Advanced Video Codec
Профиль формата : High@L3.1
Параметр CABAC формата : Да
Параметр ReFrames формата : 9 кадров
Идентификатор кодека : avc1
Идентификатор кодека/Информация : Advanced Video Coding
Продолжительность : 44 м.
Битрейт : 770 Кбит/сек
Максимальный битрейт : 3059 Кбит/сек
Ширина : 640 пикселей
Высота : 360 пикселей
Соотношение сторон : 16:9
Режим частоты кадров : Постоянный
Частота кадров : 29,970 кадров/сек
Цветовое пространство : YUV
Субдискретизация насыщенности : 4:2:0
Битовая глубина : 8 бит
Тип развёртки : Прогрессивная
Бит/(Пиксели*Кадры) : 0.112
Размер потока : 245 Мбайт (85%)
Библиотека кодирования : x264 core 125 r2200 999b753
Настройки программы : cabac=1 / ref=9 / deblock=1:-1:-1 / analyse=0x3:0x133 / me=umh / subme=8 / psy=1 / psy_rd=1.00:0.10 / mixed_ref=1 / me_range=24 / chroma_me=1 / trellis=2 / 8x8dct=1 / cqm=0 / deadzone=21,11 / fast_pskip=0 / chroma_qp_offset=-3 / threads=6 / lookahead_threads=1 / sliced_threads=0 / nr=0 / decimate=1 / interlaced=0 / bluray_compat=0 / constrained_intra=0 / bframes=8 / b_pyramid=2 / b_adapt=2 / b_bias=0 / direct=3 / weightb=1 / open_gop=0 / weightp=2 / keyint=250 / keyint_min=25 / scenecut=40 / intra_refresh=0 / rc_lookahead=50 / rc=2pass / mbtree=1 / bitrate=770 / ratetol=1.0 / qcomp=0.60 / qpmin=0 / qpmax=69 / qpstep=4 / cplxblur=20.0 / qblur=0.5 / ip_ratio=1.40 / aq=1:1.00
Дата кодирования : UTC 2021-11-23 06:05:08
Дата пометки : UTC 2021-11-23 06:05:13

Аудио
Идентификатор : 2
Формат : AAC
Формат/Информация : Advanced Audio Codec
Профиль формата : LC
Идентификатор кодека : 40
Продолжительность : 44 м.
Вид битрейта : Переменный
Битрейт : 128 Кбит/сек
Максимальный битрейт : 140 Кбит/сек
Каналы : 2 канала
Расположение каналов : Front: L R
Частота : 48,0 КГц
Метод сжатия : С потерями
Размер потока : 40,7 Мбайт (14%)
Дата кодирования : UTC 2021-11-23 06:05:13
Дата пометки : UTC 2021-11-23 06:05:13
piratbit.org



Скачать Одинокие стрелки через торрент https://i116.fastpic.org/big/2021/1124/b3/12e74ec7617b0296ba1461776f0535b3.jpg Скачать, смотреть онлайн Одинокие стрелки бесплантно в хорошем качестве Описание: Продолжение успешного телесериала X-Files о трёх помешанных на всевозможных заговорах хакерах, более известные как группа ... 5 10 1
Торрент: Зарегистрирован [2021-11-24 09:12] · скачан: 4 раз
Статус: не проверено
Размер: 3.92 GB
Как cкачать? Как скачать Одинокие стрелки через торрент | UTorrent

28-11-2019 20:33  

Отключить всю рекламу на сайте

    Дорогой пользователь! Огромная просьба, поблагодарите релизера, оцените раздачу и оставьте свои комментарий, если Вы скачали Одинокие стрелки через торрент бесплатно!
    Комментировать посты могут только пользователи прошедшие не сложную регистрацию
    Показать сообщения:    

    Одинокие стрелки через торрент
    Скачать бесплатно Одинокие стрелки
    Одинокие стрелки скачать торрент
    Одинокие стрелки смотреть онлайн
    Cкачать фильм Одинокие стрелки бесплатно
    Одинокие стрелки скачать торрент в хорошем качестве
    Одинокие стрелки смотреть онлайн бесплатно в хорошем качестве


    Вы не можете начинать темы
    Вы не можете отвечать на сообщения
    Вы не можете редактировать свои сообщения
    Вы не можете удалять свои сообщения
    Вы не можете голосовать в опросах
    Вы не можете прикреплять файлы к сообщениям
    Вы можете скачивать файлы