Присоединяйтесь к нам в Telegram!, здесь всегда актуальный адрес сайта, оперативная поддержка и многое другое!!

>

5.9

iTunes

7.4

iTunes

9.4

1 сезон

1

7.4

2 сезон

7.2

iTunes

7.3

1 сезон

13

6.1

iTunes

8.3

Пиратка

30

ULTIMATE

pack

9.9

Лицензия

ВАЖНО

ИГРА 18+

pack

7.3

RePack

MK11

7.7

RePack

jed

7.8

RePack

fifa19

8.5

RePack

RDR2

RePack

NEED FOR SPEED™ PAYBACK

5 сезон

9 сезон

Бесстыжие 9 сезон

Все сериалы

все сериалы на PB.wtf

RePack

FAR CRY 5

Anonymous, доброй ночи, мы катастрофически не успеваем собрать деньги на оплату серверов, помогите нам пожалуйста 5,10,15р., для нас важна любая помощь . В качестве благодарности мы отключим Вам всю рекламу на сайте (укажите свой ник в строку Ваше имя)!

×
  
Magnet ссылка

Хакеры / Hackers (Иэн Софтли) [1995, Триллер, драма, комедия, криминал, BDRip - HEVC 1080p 10 bit 60 FPS, DUB, DVO] piratbit.org

Хакеры через торрент piratbit.org

Раздают: 6 [ 1 KB/s ] Качают: 2 [ 0 KB/s ]
Размер: 3.26 GB | Добавлен: 10 д. назад | Торрент скачан:47 раз
Смотреть онлайн Хакеры | Скачать    Ребята, помогите собрать деньги на оплату серверов!!!

24-11-2021 11:42 Хакеры Скачать торрент  

Hackers
«Their only crime was curiosity»


Год выпуска: 1995
Страна: США
Жанр: триллер, драма, комедия, криминал

Продолжительность: 01:45:15
Перевод: Дублированный |
Перевод: Профессиональный двухголосый закадровый | НТВ
Субтитры: русские |

Режиссер: Иэн Софтли
В ролях: Джонни Ли Миллер, Анджелина Джоли, Джесси Брэдфорд, Мэттью Лиллард, Лоуренс Мэйсон, Реноли Сантьяго, Фишер Стивенс, Альберта Уотсон, Даррен Ли, Питер Й. Ким

Описание:
Развлекаясь манипуляциями в коммерческих сетях, начинающий хакер делает почти невозможное: взламывает защиту секретного компьютера Гибсон в корпорации Эллингтон. При этом он случайно подключается к схеме хищения средств, искусно замаскированной кем-то под компьютерный вирус, действие которого может привести к глобальной экологической катастрофе.

Молодой хакер и его приятели в доли секунды превращаются в подозреваемых. Охоту за ними начинает ФБР и главный компьютерщик корпорации Эллингтон по кличке Чума (Фишер Стивенс). Однако молодые хакеры раскрывают губительность истинных планов Чумы и объединяют свои технические знания, чтобы запустить массированную киберпространственную атаку, которая должна очистить их от подозрений и предотвратить экологическую катастрофу.

Мировая премьера: 15 сентября 1995


Качество: BDRip 1080p Rip by DD2D3
Формат: MKV
Видео: V_MPEGH/ISO/HEVC; 1920x816 (2.35:1); 3769 Kbps; 60 fps; 0,040 bpp
Аудио: русский; AC3; 192 Kbps; CBR; 2 ch ||
Аудио: русский; AC3; 384 Kbps; CBR; 6 ch ||
Навигация по главам: есть



Общее
Уникальный идентификатор : 226171353718400339781792568457365392056 (0xAA2704AD450DE2F7A2AC6DDA0B658AB8)
Полное имя : D:\Hackers (1995) BDRip - HEVC 1080p 10 bit 60 FPS.mkv
Формат : Matroska
Версия формата : Version 2
Размер файла : 3,26 Гбайт
Продолжительность : 1 ч. 45 м.
Общий поток : 4 434 Кбит/сек
Название фильма : Rip by from DD2D3
Дата кодирования : UTC 2021-11-24 10:42:37
Программа кодирования : mkvmerge v7.8.0 ('River Man') 32bit built on Apr 3 2015 12:11:22
Библиотека кодирования : libebml v1.3.1 + libmatroska v1.4.2
Attachments : poster

Видео
Идентификатор : 1
Формат : HEVC
Формат/Информация : High Efficiency Video Coding
Профиль формата : Main 10@L4.1@Main
Идентификатор кодека : V_MPEGH/ISO/HEVC
Продолжительность : 1 ч. 45 м.
Битрейт : 3 770 Кбит/сек
Ширина : 1 920 пикселей
Высота : 816 пикселей
Соотношение сторон : 2,35:1
Режим частоты кадров : Постоянный
Частота кадров : 60,000 кадров/сек
Цветовое пространство : YUV
Субдискретизация насыщенности : 4:2:0
Битовая глубина : 10 бит
Бит/(Пиксели*Кадры) : 0.040
Размер потока : 2,77 Гбайт (85%)
Библиотека кодирования : x265 3.5+10-82786fccc:[Windows][GCC 11.1.0][64 bit] 10bit
Настройки программы : cpuid=1111039 / frame-threads=2 / numa-pools=4 / wpp / no-pmode / no-pme / no-psnr / no-ssim / log-level=2 / input-csp=1 / input-res=1920x816 / interlace=0 / total-frames=378946 / level-idc=41 / high-tier=1 / uhd-bd=0 / ref=3 / no-allow-non-conformance / no-repeat-headers / annexb / no-aud / no-eob / no-eos / no-hrd / info / hash=0 / no-temporal-layers / open-gop / min-keyint=25 / keyint=250 / gop-lookahead=0 / bframes=4 / b-adapt=2 / b-pyramid / bframe-bias=0 / rc-lookahead=20 / lookahead-slices=5 / scenecut=40 / hist-scenecut=0 / radl=0 / no-splice / no-intra-refresh / ctu=64 / min-cu-size=8 / no-rect / no-amp / max-tu-size=32 / tu-inter-depth=1 / tu-intra-depth=1 / limit-tu=0 / rdoq-level=0 / dynamic-rd=0.00 / no-ssim-rd / signhide / no-tskip / nr-intra=0 / nr-inter=0 / no-constrained-intra / strong-intra-smoothing / max-merge=3 / limit-refs=1 / no-limit-modes / me=1 / subme=2 / merange=57 / temporal-mvp / no-frame-dup / no-hme / weightp / no-weightb / no-analyze-src-pics / deblock=0:0 / sao / no-sao-non-deblock / rd=3 / selective-sao=4 / early-skip / rskip / no-fast-intra / no-tskip-fast / no-cu-lossless / b-intra / no-splitrd-skip / rdpenalty=0 / psy-rd=2.00 / psy-rdoq=0.00 / no-rd-refine / no-lossless / cbqpoffs=0 / crqpoffs=0 / rc=abr / bitrate=3850 / qcomp=0.60 / qpstep=4 / stats-write=0 / stats-read=2 / cplxblur=20.0 / qblur=0.5 / ipratio=1.40 / pbratio=1.30 / aq-mode=2 / aq-strength=1.00 / cutree / zone-count=0 / no-strict-cbr / qg-size=32 / no-rc-grain / qpmax=69 / qpmin=0 / no-const-vbv / sar=1 / overscan=0 / videoformat=5 / range=0 / colorprim=2 / transfer=2 / colormatrix=2 / chromaloc=0 / display-window=0 / cll=0,0 / min-luma=0 / max-luma=1023 / log2-max-poc-lsb=8 / vui-timing-info / vui-hrd-info / slices=1 / no-opt-qp-pps / no-opt-ref-list-length-pps / no-multi-pass-opt-rps / scenecut-bias=0.05 / hist-threshold=0.03 / no-opt-cu-delta-qp / no-aq-motion / no-hdr10 / no-hdr10-opt / no-dhdr10-opt / no-idr-recovery-sei / analysis-reuse-level=0 / analysis-save-reuse-level=0 / analysis-load-reuse-level=0 / scale-factor=0 / refine-intra=0 / refine-inter=0 / refine-mv=1 / refine-ctu-distortion=0 / no-limit-sao / ctu-info=0 / no-lowpass-dct / refine-analysis-type=0 / copy-pic=1 / max-ausize-factor=1.0 / no-dynamic-refine / no-single-sei / no-hevc-aq / no-svt / no-field / qp-adaptation-range=1.00 / scenecut-aware-qp=0conformance-window-offsets / right=0 / bottom=0 / decoder-max-rate=0 / no-vbv-live-multi-pass
Default : Да
Forced : Нет

Аудио #1
Идентификатор : 2
Формат : AC-3
Формат/Информация : Audio Coding 3
Коммерческое название : Dolby Digital
Идентификатор кодека : A_AC3
Продолжительность : 1 ч. 45 м.
Вид битрейта : Постоянный
Битрейт : 192 Кбит/сек
Каналы : 2 канала
Channel layout : L R
Частота : 48,0 КГц
Частота кадров : 31,250 кадров/сек (1536 SPF)
Метод сжатия : С потерями
Размер потока : 145 Мбайт (4%)
Заголовок : DUB
Язык : Russian
Service kind : Complete Main
Default : Да
Forced : Нет

Аудио #2
Идентификатор : 3
Формат : AC-3
Формат/Информация : Audio Coding 3
Коммерческое название : Dolby Digital
Идентификатор кодека : A_AC3
Продолжительность : 1 ч. 45 м.
Вид битрейта : Постоянный
Битрейт : 384 Кбит/сек
Каналы : 6 каналов
Channel layout : L R C LFE Ls Rs
Частота : 48,0 КГц
Частота кадров : 31,250 кадров/сек (1536 SPF)
Метод сжатия : С потерями
Размер потока : 289 Мбайт (9%)
Заголовок : DVO [HTB+]
Язык : Russian
Service kind : Complete Main
Default : Нет
Forced : Да

Текст
Идентификатор : 4
Формат : UTF-8
Идентификатор кодека : S_TEXT/UTF8
Идентификатор кодека/Информация : UTF-8 Plain Text
Язык : Russian
Default : Нет
Forced : Нет

Меню
00:00:00.000 : en:00:00:00.000
00:04:52.833 : en:00:04:52.833
00:10:11.583 : en:00:10:11.583
00:15:00.417 : en:00:15:00.417
00:18:50.875 : en:00:18:50.875
00:25:39.708 : en:00:25:39.708
00:30:09.917 : en:00:30:09.917
00:33:41.208 : en:00:33:41.208
00:39:39.000 : en:00:39:39.000
00:44:10.250 : en:00:44:10.250
00:49:25.542 : en:00:49:25.542
00:54:23.958 : en:00:54:23.958
00:58:24.417 : en:00:58:24.417
01:04:39.667 : en:01:04:39.667
01:09:02.500 : en:01:09:02.500
01:14:36.208 : en:01:14:36.208
01:22:13.000 : en:01:22:13.000
01:29:16.917 : en:01:29:16.917
01:33:54.458 : en:01:33:54.458
01:38:34.250 : en:01:38:34.250
скриншот  скриншот  скриншот  


© Оформление by DD2D3 piratbit.org



Скачать Хакеры через торрент http://images.vfl.ru/ii/1637753254/ab760fa8/36817291.jpg Скачать, смотреть онлайн Хакеры бесплантно в хорошем качестве Описание: Развлекаясь манипуляциями в коммерческих сетях, начинающий хакер делает почти невозможное: взламывает защиту секретного ... 10 10 8
Info! Золотая раздача, скачанное не засчитывается.
Торрент: Зарегистрирован [2021-11-24 11:42] · скачан: 47 раз
Статус: √ проверено
Размер: 3.26 GB
Как cкачать? Как скачать Хакеры через торрент | UTorrent

% Раздел Тема Автор DL S | L
T Зарубежные сериалы [ 8.17 GB ] Биохакеры / Biohackers / Сезон: 1 / Серии: 1-6 из 6 [2020 WEBRip 1080p] [DVO] killermax2013 Скачать
1 | 0
Порно фильмы без сюжета [ 3.91 GB ] Русские Хакеры / Russian Hackers [2019 All Sex Anal Oral Facial Big Tits WEB-DLRip] sheker187 Скачать
1 | 0
Фильмы [HD 720p, 1080p] (Хороший звук DUB, MVO) [ 6.8 GB ] Хакеры / Hackers [1995 BDRip-HEVC 1080p ] [Remastered] DVO+DUB+3xMVO+2xAVO bober100 Скачать
3 | 0
Фильмы [HD 720p, 1080p] (Хороший звук DUB, MVO) [ 4.23 GB ] Хакеры / Hackers [1995 BDRip 720p by msltel] DUB 3 x MVO DVO 2 x AVO msltel Скачать
1 | 0
Фильмы [HD 720p, 1080p] (Хороший звук DUB, MVO) [ 9.78 GB ] Хакеры / Hackers [1995 BDRip 1080p by msltel] DUB 3 x MVO DVO 2 x AVO msltel Скачать
1 | 0
Фильмы до 2000 г. [ 3.15 GB ] Хакеры / Hackers [1995 BDRip AVC by msltel] DUB 3 x MVO DVO 2 x AVO msltel Скачать
1 | 0
Документальные фильмы и телепередачи [ 659 MB ] Новые хакеры / The new hackers [2011 документальный SATRip VO] кэп Скачать
1 | 0


Последний раз редактировалось: dd2d3 (2021-11-25 17:09), всего редактировалось 1 раз

28-11-2019 20:33  

Отключить всю рекламу на сайте

25-11-2021 07:38 Хакеры Скачать торрент  

помню в детстве смотрел этот фильм. Анджелина в нем мега сексуальнаpiratbit.org



25-11-2021 09:15 Хакеры Скачать торрент  

в 90ые даже саунтрек из этого фильма продавался на диске. Шикарный музонpiratbit.org



26-11-2021 00:32 Хакеры Скачать торрент  

Супер!!! Вот это подарок!!! Шедевр!!!
Большое Спасибо dd2d3!!!
Спасибо от всех любителей 1080pх60fps High&End ваши релизы бомба!
Как всегда помогу с раздачей!


Спасибо Друг, что ты есть!

Best Regards, Your V&S!
piratbit.org



    Дорогой пользователь! Огромная просьба, поблагодарите релизера, оцените раздачу и оставьте свои комментарий, если Вы скачали Хакеры через торрент бесплатно!
    Комментировать посты могут только пользователи прошедшие не сложную регистрацию
    Показать сообщения:    

    Хакеры через торрент
    Скачать бесплатно Хакеры
    Хакеры скачать торрент
    Хакеры смотреть онлайн
    Cкачать фильм Хакеры бесплатно
    Хакеры скачать торрент в хорошем качестве
    Хакеры смотреть онлайн бесплатно в хорошем качестве


    Вы не можете начинать темы
    Вы не можете отвечать на сообщения
    Вы не можете редактировать свои сообщения
    Вы не можете удалять свои сообщения
    Вы не можете голосовать в опросах
    Вы не можете прикреплять файлы к сообщениям
    Вы можете скачивать файлы