Доктор Стрэндж

Лицензия

Добыча

MVO

Дом дракона

1 сезон

Тор

Лицензия

Мэверик

Лицензия

Там, где раки поют

MVO

Властелин колец

1 сезон

Ultimate

pack

Рекомендуем

30

Repack

ВАЖНО

ВАЖНО

Ghostwire

RePack

jed

RePack

nioh2

RePack

RDR2

RePack

NEED FOR SPEED™ PAYBACK

RePack

скачать торрент

Кинопоиск HD

Острые козырьки 6 сезон

6 сезон

FAR CRY 6

RePack

скачать торрент

Лицензия

скачать торрент

MVO

1

1 сезон

скачать торрент

1 сезон

скачать торрент

Лицензия

  

Крыса на подносе (Андрей Тутышкин) [1963 г., комедия, короткометражный, SATRip-AVC]

Крыса на подносе через торрент piratbit.org

Размер: 365 MB | Добавлен: 10 мес. назад | Торрент скачан:16 раз
Смотреть онлайн Крыса на подносе | Скачать   

29-11-2021 18:57 Крыса на подносе Скачать торрент  

Крыса на подносе

Год выпуска: 1963
Премьера: 8 марта 1963 (ТВ), 8 июля 1963 (кино)
Страна: СССР | Мосфильм
Жанр: комедия, короткометражный
Продолжительность: 00:15:28
Перевод: не требуется

Режиссер: Андрей Тутышкин

В ролях: Николай Гриценко, Василий Нещипленко, Леонид Куравлёв, Владимир Климентьев, Герман Качин, Зоя Василькова, Елизавета Никищихина, Фёдор Никитин

Описание: Сатирическая комедия по одноименному рассказу Аркадия Аверченко.
Пришедший на выставку «нового искусства» посетитель, при виде экспонирующихся там вещей решает проучить их создателей. Он знакомится с двумя художниками с этой выставки, покупает ряд их «произведений» и приглашает к себе домой, чтобы «почествовать». При этом он предупреждает, что кое-какие порядки в его доме могут показаться посетителям немного оригинальными, как и их картина, но художники уверяют что их необычными вещами не удивишь.
Фильм явился актуальным откликом кинематографистов на разгром в Манеже Н.Хрущёвым выставки неформального искусства (октябрь 1962 г.)

rating

Файл
Формат: MKV
Кодек: x264
Качество: SATRip-AVC (DVB)
Видео: MPEG-4 AVC, 702x574@748x574, 25.000 fps, 3096 kbps, 0.307 bit/pixel
Аудио: AC3, 2 chnls, 192 kbps
x264 [info]: frame I:132 Avg QP:18.98 size: 46890
x264 [info]: frame P:5829 Avg QP:20.06 size: 29368
x264 [info]: frame B:17246 Avg QP:21.16 size: 10548
x264 [info]: consecutive B-frames: 2.5% 4.6% 12.5% 31.9% 21.0% 25.9% 1.2% 0.4% 0.0% 0.0% 0.0%
Format : Matroska
Format version : Version 4
File size : 365 MiB
Duration : 15 min 28 s
Overall bit rate : 3 296 kb/s
Movie name : Крыса на подносе (1963) - Rip by -{am}-
Encoded date : UTC 2021-11-29 14:48:36
Writing application : mkvmerge v7.2.0 ('On Every Street') 32bit built on Sep 13 2014 15:42:11
Writing library : libebml v1.3.0 + libmatroska v1.4.1
Attachments : poster.png

Video
ID : 1
Format : AVC
Format/Info : Advanced Video Codec
Format profile : High@L4.1
Format settings : CABAC / 16 Ref Frames
Format settings, CABAC : Yes
Format settings, Reference : 16 frames
Codec ID : V_MPEG4/ISO/AVC
Duration : 15 min 28 s
Bit rate : 3 096 kb/s
Width : 702 pixels
Height : 574 pixels
Display aspect ratio : 4:3
Original display aspect rat : 4:3
Frame rate mode : Constant
Frame rate : 25.000 FPS
Color space : YUV
Chroma subsampling : 4:2:0
Bit depth : 8 bits
Scan type : Progressive
Bits/(Pixel*Frame) : 0.307
Stream size : 343 MiB (94%)
Title : Krysa.na.podnose.1963.{am}.748.Rus
Writing library : x264 core 164 r3075+55M 97d28bb t_mod_New [(8 & 10)-bit@all X86_64]
Encoding settings : cabac=1 / ref=16 / deblock=1:-2:-3 / analyse=0x3:0x133 / me=umh / subme=11 / psy=1 / fade_compensate=0.00 / psy_rd=1.07:0.20 / mixed_ref=1 / me_range=48 / chroma_me=1 / trellis=2 / 8x8dct=1 / cqm=2 / deadzone=6,6 / fast_pskip=0 / chroma_qp_offset=-5 / threads=18 / lookahead_threads=4 / sliced_threads=0 / nr=0 / decimate=0 / interlaced=0 / bluray_compat=0 / constrained_intra=0 / fgo=0 / bframes=10 / b_pyramid=2 / b_adapt=2 / b_bias=0 / direct=3 / weightb=1 / open_gop=0 / weightp=2 / keyint=250 / keyint_min=25 / scenecut=40 / intra_refresh=0 / rc_lookahead=40 / rc=crf / mbtree=0 / crf=18.0000 / qcomp=0.60 / qpmin=0:0:0 / qpmax=30:30:30 / qpstep=4 / vbv_maxrate=62500 / vbv_bufsize=78125 / crf_max=30.0 / nal_hrd=none / filler=0 / ip_ratio=1.25 / pb_ratio=1.30 / aq=3:1.00 / aq-sensitivity=10.00 / aq-factor=1.00:1.00:1.00 / aq2=0 / aq3=0
Language : Russian
Default : Yes
Forced : No
Color range : Limited
Color primaries : BT.601 PAL
Transfer characteristics : BT.470 System B/G
Matrix coefficients : BT.470 System B/G

Audio
ID : 2
Format : AC-3
Format/Info : Audio Coding 3
Commercial name : Dolby Digital
Codec ID : A_AC3
Duration : 15 min 27 s
Bit rate mode : Constant
Bit rate : 192 kb/s
Channel(s) : 2 channels
Channel layout : L R
Sampling rate : 48.0 kHz
Frame rate : 31.250 FPS (1536 SPF)
Compression mode : Lossy
Stream size : 21.2 MiB (6%)
Title : Original
Language : Russian
Service kind : Complete Main
Default : Yes
Forced : No
скриншот  скриншот  скриншот  

скриншот  скриншот  скриншот  



Скачать Крыса на подносе через торрент http://youpicture.org/images/2021/11/29/k5tu25rkx2ntxktz1eahnymob.png Скачать, смотреть онлайн Крыса на подносе бесплантно в хорошем качестве Описание: Сатирическая комедия по одноименному рассказу Аркадия Аверченко.Пришедший на выставку «нового искусства» посетитель, при виде ... 10 10 1
Торрент: Зарегистрирован [2021-11-29 18:57] · скачан: 16 раз
Статус: √ проверено
Размер: 365 MB
Как cкачать? Как скачать Крыса на подносе через торрент | UTorrent

28-11-2019 20:33  

Отключить вcю реклaмy на сайте

    Дорогой пользователь! Огромная просьба, поблагодарите релизера, оцените раздачу и оставьте свои комментарий, если Вы скачали Крыса на подносе через торрент бесплатно!!
    Комментировать посты могут только пользователи прошедшие не сложную регистрацию
    Показать сообщения:    


    Крыса на подносе через торрент
    Скачать бесплатно Крыса на подносе
    Крыса на подносе скачать торрент
    Крыса на подносе смотреть онлайн
    Cкачать фильм Крыса на подносе бесплатно
    Крыса на подносе скачать торрент в хорошем качестве
    Крыса на подносе смотреть онлайн бесплатно в хорошем качестве
    Вы не можете начинать темы
    Вы не можете отвечать на сообщения
    Вы не можете редактировать свои сообщения
    Вы не можете удалять свои сообщения
    Вы не можете голосовать в опросах
    Вы не можете прикреплять файлы к сообщениям
    Вы можете скачивать файлы