Всегда рабочее зеркало без VPN и Proxy просто перед .vidak.icu напиши любое слово или цифру, Пример http://gah.vidak.icu

>

7.4

iTunes

7.4

2 сезон

6.6

iTunes

1

7.4

2 сезон

7.2

iTunes

6.0

MVO

13

6.1

iTunes

8.3

Пиратка

30

ULTIMATE

pack

9.9

Лицензия

ВАЖНО

ИГРА 18+

pack

7.3

RePack

MK11

7.7

RePack

jed

7.8

RePack

fifa19

8.5

RePack

RDR2

RePack

NEED FOR SPEED™ PAYBACK

1 сезон

9 сезон

Бесстыжие 9 сезон

Все сериалы

все сериалы на PB.wtf

RePack

FAR CRY 5

Anonymous, доброй ночи, мы катастрофически не успеваем собрать деньги на оплату серверов, помогите нам пожалуйста 5,10,15р., для нас важна любая помощь . В качестве благодарности мы отключим Вам всю рекламу на сайте (укажите свой ник в строку Ваше имя)!

×
  
Magnet ссылка

Хороший Джо Белл / Good Joe Bell (Рейнальдо Маркус Грин) [2020, Биография, драма, BDRip 720p] MVO [КиноПоиск HD] piratbit.org

Хороший Джо Белл через торрент piratbit.org

Размер: 3.62 GB | Добавлен: 1 мес. 27 д. назад | Торрент скачан:30 раз
Смотреть онлайн Хороший Джо Белл | Скачать    Ребята, помогите собрать деньги на оплату серверов!!!

30-11-2021 18:24 Хороший Джо Белл Скачать торрент  

Хороший Джо Белл
Good Joe Bell

Год выпуска: 2020
Страна: США
Студия: Argent Pictures, Closest to the Hole Productions, Endeavor Content
Жанр: Биография, драма
Продолжительность: 01:33:37
Перевод: Профессиональный (многоголосый) | КиноПоиск HD
Субтитры: Русские (Full), английские

Режиссер: Рейнальдо Маркус Грин

rating

В ролях: Марк Уолберг, Рейд Миллер, Конни Бриттон, Макс Дженкинс, Гэри Синиз, Морган Лили, Блейн Майе, Игби Ригни, Корал Чэмберс, Скаут Смит

Описание: Простой работяга Джо Белл отправляется в пеший переход через всю континентальную часть США, чтобы привлечь внимание общества к систематическим издевательствам и преследованиям ЛГБТ-подростков.

Качество: BDRip 720p
Формат: MKV

Видео: MPEG-4 AVC, 3996 Кбит/с, 1280x464
Аудио #01: AC3, 6 ch, 448 Кбит/с | RUS
Аудио #02: Е-AC3, 6 ch, 448 Кбит/с | RUS
Аудио #03: AC3, 6 ch, 640 Кбит/с | ENG
скриншот  скриншот  скриншот  скриншот  

Complete name : Horoshiy.Dzho.Bell.2020.BDRip.720p.ELEKTRI4KA.UNIONGANG.mkv
Format : Matroska
Format version : Version 4
File size : 3.62 GiB
Duration : 1 h 33 min
Overall bit rate : 5 526 kb/s
Movie name : Horoshiy.Dzho.Bell.2020.BDRip.720p.ELEKTRI4KA.UNIONGANG.
Encoded date : UTC 2021-11-29 22:18:18
Writing application : mkvmerge v8.3.0 ('Over the Horizon') 32bit
Writing library : libebml v1.3.1 + libmatroska v1.4.2

Video
ID : 1
Format : AVC
Format/Info : Advanced Video Codec
Format profile : High@L4.1
Format settings : CABAC / 12 Ref Frames
Format settings, CABAC : Yes
Format settings, Reference frames : 12 frames
Codec ID : V_MPEG4/ISO/AVC
Duration : 1 h 33 min
Bit rate : 3 996 kb/s
Width : 1 280 pixels
Height : 464 pixels
Display aspect ratio : 2.759
Frame rate mode : Constant
Frame rate : 23.976 (24000/1001) FPS
Color space : YUV
Chroma subsampling : 4:2:0
Bit depth : 8 bits
Scan type : Progressive
Bits/(Pixel*Frame) : 0.281
Stream size : 2.61 GiB (72%)
Writing library : x264 core 164 r3075
Encoding settings : cabac=1 / ref=12 / deblock=1:-3:-3 / analyse=0x3:0x133 / me=umh / subme=11 / psy=1 / psy_rd=1.00:0.00 / mixed_ref=1 / me_range=32 / chroma_me=1 / trellis=2 / 8x8dct=1 / cqm=0 / deadzone=21,11 / fast_pskip=0 / chroma_qp_offset=-2 / threads=6 / lookahead_threads=1 / sliced_threads=0 / nr=0 / decimate=0 / interlaced=0 / bluray_compat=0 / constrained_intra=0 / bframes=12 / b_pyramid=2 / b_adapt=2 / b_bias=0 / direct=1 / weightb=1 / open_gop=0 / weightp=2 / keyint=250 / keyint_min=23 / scenecut=40 / intra_refresh=0 / rc_lookahead=60 / rc=crf / mbtree=0 / crf=15.5 / qcomp=0.60 / qpmin=0 / qpmax=69 / qpstep=4 / vbv_maxrate=62500 / vbv_bufsize=78125 / crf_max=0.0 / nal_hrd=none / filler=0 / ip_ratio=1.30 / pb_ratio=1.20 / aq=3:0.90 / zones=16368,17594,crf=15.0/26635,26963,crf=15.0/33588,34592,crf=15.0/37422,39826,crf=15.0/40741,44183,crf=15.0/50785,55795,crf=15.0/75423,75966,crf=15.0/90638,94486,crf=15.0
Language : English
Default : Yes
Forced : No
Color range : Limited
Color primaries : BT.709
Transfer characteristics : BT.709
Matrix coefficients : BT.709

Audio #1
ID : 2
Format : AC-3
Format/Info : Audio Coding 3
Commercial name : Dolby Digital
Codec ID : A_AC3
Duration : 1 h 33 min
Bit rate mode : Constant
Bit rate : 448 kb/s
Channel(s) : 6 channels
Channel layout : L R C LFE Ls Rs
Sampling rate : 48.0 kHz
Frame rate : 31.250 FPS (1536 SPF)
Compression mode : Lossy
Stream size : 301 MiB (8%)
Title : MVO AC3 (KinoPoisk HD)
Language : Russian
Service kind : Complete Main
Default : Yes
Forced : Yes

Audio #2
ID : 3
Format : E-AC-3
Format/Info : Enhanced AC-3
Commercial name : Dolby Digital Plus
Codec ID : A_EAC3
Duration : 1 h 33 min
Bit rate mode : Constant
Bit rate : 448 kb/s
Channel(s) : 6 channels
Channel layout : L R C LFE Ls Rs
Sampling rate : 48.0 kHz
Frame rate : 31.250 FPS (1536 SPF)
Compression mode : Lossy
Stream size : 301 MiB (8%)
Title : MVO EAC3 (KinoPoisk HD)
Language : Russian
Service kind : Complete Main
Default : No
Forced : No

Audio #3
ID : 4
Format : AC-3
Format/Info : Audio Coding 3
Commercial name : Dolby Digital
Codec ID : A_AC3
Duration : 1 h 33 min
Bit rate mode : Constant
Bit rate : 640 kb/s
Channel(s) : 6 channels
Channel layout : L R C LFE Ls Rs
Sampling rate : 48.0 kHz
Frame rate : 31.250 FPS (1536 SPF)
Compression mode : Lossy
Stream size : 429 MiB (12%)
Title : Original
Language : English
Service kind : Complete Main
Default : No
Forced : No

Text #1
ID : 5
Format : UTF-8
Codec ID : S_TEXT/UTF8
Codec ID/Info : UTF-8 Plain Text
Duration : 1 h 32 min
Bit rate : 81 b/s
Count of elements : 1051
Stream size : 55.3 KiB (0%)
Title : Full (KinoPoisk HD)
Language : Russian
Default : Yes
Forced : No

Text #2
ID : 6
Format : UTF-8
Codec ID : S_TEXT/UTF8
Codec ID/Info : UTF-8 Plain Text
Duration : 1 h 28 min
Bit rate : 61 b/s
Count of elements : 1289
Stream size : 39.5 KiB (0%)
Language : English
Default : No
Forced : No

Text #3
ID : 7
Format : UTF-8
Codec ID : S_TEXT/UTF8
Codec ID/Info : UTF-8 Plain Text
Duration : 1 h 29 min
Bit rate : 67 b/s
Count of elements : 1404
Stream size : 44.7 KiB (0%)
Title : SDH
Language : English
Default : No
Forced : No

Menu
00:00:00.000 : en:Chapter 01
00:09:32.739 : en:Chapter 02
00:17:12.949 : en:Chapter 03
00:27:41.201 : en:Chapter 04
00:35:10.525 : en:Chapter 05
00:44:56.527 : en:Chapter 06
00:52:31.523 : en:Chapter 07
01:01:49.331 : en:Chapter 08
01:10:28.891 : en:Chapter 09
01:19:55.916 : en:Chapter 10
01:26:03.116 : en:Chapter 11

piratbit.org



Скачать Хороший Джо Белл через торрент https://i116.fastpic.org/big/2021/1021/15/e03b488d6ddb61825f039ab5dae59e15.jpg Скачать, смотреть онлайн Хороший Джо Белл бесплантно в хорошем качестве Описание: Простой работяга Джо Белл отправляется в пеший переход через всю континентальную часть США, чтобы привлечь внимание общества к ... 10 10 2
Торрент: Зарегистрирован [2021-11-30 18:24] · скачан: 30 раз
Статус: √ проверено
Размер: 3.62 GB
Как cкачать? Как скачать Хороший Джо Белл через торрент | UTorrent

% Раздел Тема Автор DL S | L
Фильмы 2019-2020 [DVDrip, WEB-DLRip, HDrip] (DUB, MVO) [ 1.46 GB ] Хороший Джо Белл / Good Joe Bell [2020 Биография BDRip] MVO [ / КиноПоиск HD] Twi7ter Скачать
1 | 0
Фильмы [HD 720p, 1080p] (Хороший звук DUB, MVO) [ 10.74 GB ] Хороший Джо Белл / Good Joe Bell [2020 Биография BDRip 1080p] MVO [КиноПоиск HD] bober100 Скачать
1 | 0
Фильмы 2019-2020 [DVDrip, WEB-DLRip, HDrip] (DUB, MVO) [ 1.46 GB ] Хороший Джо Белл / Good Joe Bell [2020 Биография BDRip] MVO [КиноПоиск HD] bober100 Скачать
1 | 0
Фильмы (Blu-ray, BD-Remux, HDDVD) [ 20.38 GB ] Хороший Джо Белл / Good Joe Bell [2020 Биография BD Remux 1080p] MVO [КиноПоиск HD] bober100 Скачать
1 | 0

28-11-2019 20:33  

Отключить всю рекламу на сайте

02-12-2021 18:43 Хороший Джо Белл Скачать торрент  

Уолбергу не в чем больше сняться,,,piratbit.org



    Дорогой пользователь! Огромная просьба, поблагодарите релизера, оцените раздачу и оставьте свои комментарий, если Вы скачали Хороший Джо Белл через торрент бесплатно!
    Комментировать посты могут только пользователи прошедшие не сложную регистрацию
    Показать сообщения:    

    Хороший Джо Белл через торрент
    Скачать бесплатно Хороший Джо Белл
    Хороший Джо Белл скачать торрент
    Хороший Джо Белл смотреть онлайн
    Cкачать фильм Хороший Джо Белл бесплатно
    Хороший Джо Белл скачать торрент в хорошем качестве
    Хороший Джо Белл смотреть онлайн бесплатно в хорошем качестве


    Вы не можете начинать темы
    Вы не можете отвечать на сообщения
    Вы не можете редактировать свои сообщения
    Вы не можете удалять свои сообщения
    Вы не можете голосовать в опросах
    Вы не можете прикреплять файлы к сообщениям
    Вы можете скачивать файлы