Достать ножи: Стеклянная луковица

MVO

Добыча

Дубляж

Уэнсдэй

1 сезон

Тор

Дубляж

13 клиническая

1 сезон

Жестокая ночь

MVO

Одни из нас

1 сезон

Deluxe

pack

Рекомендуем

30

Пиратка

ВАЖНО

ВАЖНО

Ghostwire

Пиратка

jed

RePack

nioh2

RePack

RDR2

RePack

NEED FOR SPEED™ PAYBACK

RePack

скачать торрент

Кинопоиск HD

Острые козырьки 6 сезон

6 сезон

FAR CRY 6

RePack

скачать торрент

Лицензия

скачать торрент

MVO

1

1 сезон

скачать торрент

1 сезон

скачать торрент

Лицензия

  

Красотка на взводе / Jolt (Таня Уэкслер) [2021, Боевик, комедия, UHD BDRemux 2160p] Дубляж [Мосфильм-Мастер / Кинопоиск HD]

Красотка на взводе через торрент piratbit.org

Размер: 47.17 GB | Добавлен: 1 год 2 мес. назад | Торрент скачан:45 раз
Смотреть онлайн | Скачать | Поддержите нас   

04-12-2021 18:32 Красотка на взводе Скачать торрент  

Красотка на взводе | Jolt
Год выпуска: 2021
Страна: США
Студия: Busted Shark Productions, Campbell Grobman Films, Eclectic Pictures Inc., Jolt Productions, Millennium Films, Nu Boyana Film Studios
Жанр: Боевик, комедия
Продолжительность: 01:31:31
Перевод: Дублированный | Мосфильм-Мастер | Кинопоиск HD
Субтитры: Русские (Forced, full), английские

Режиссер: Таня Уэкслер

rating

В ролях: Кейт Бекинсейл, Лаверн Кокс, Стэнли Туччи, Бобби Каннавале, Джай Кортни, Сьюзен Сарандон, Константин Грегори, Ори Феффер, Дэвид Брэдли, Льюис Иэн Брэй

Описание: Вышибала Линди плохо умеет управлять собственным гневом и постоянно боится кого-то убить в приступе ярости. В качестве самоконтроля она носит специальный жилет, который бьёт её током и успокаивает, прежде чем она совершит необратимое. Но после смерти возлюбленного Линди вынуждена забыть о контроле и отправиться на поиски убийцы.

Качество: UHD BDRemux 2160p
Формат: MKV

Видео: 3840x1600 at 24.000 fps, MPEG-H HEVC HDR Video, ~ 68300 kbps avg
Аудио #01: 48 kHz, AC3, 5.1, 448 Kbps | Дублированный | Кинопоиск HD | RUS |
Аудио #02: 48 kHz, DTS-HD MA, 7.1, 4998 Kbps | Оригинал | ENG |
скриншот  скриншот  скриншот  скриншот  скриншот  

General
Unique ID : 47950426917972358230255731903920677469 (0x2412EA92F2AB8FEB858516325685225D)
Complete name : E:VideoJolt.2021.BDREMUX.2160p.HDR.seleZen.mkv
Format : Matroska
Format version : Version 4
File size : 47.2 GiB
Duration : 1 h 31 min
Overall bit rate mode : Variable
Overall bit rate : 73.8 Mb/s
Movie name : Jolt 2021 from seleZen
Encoded date : UTC 2021-12-04 18:16:23
Writing application : mkvmerge v59.0.0 ('Shining Star') 64-bit
Writing library : libebml v1.4.2 + libmatroska v1.6.4

Video
ID : 1
ID in the original source medium : 4113 (0x1011)
Format : HEVC
Format/Info : High Efficiency Video Coding
Format profile : Main 10@L5.1@High
HDR format : SMPTE ST 2086, HDR10 compatible
Codec ID : V_MPEGH/ISO/HEVC
Duration : 1 h 31 min
Bit rate : 68.3 Mb/s
Width : 3 840 pixels
Height : 2 160 pixels
Display aspect ratio : 16:9
Frame rate mode : Constant
Frame rate : 24.000 FPS
Color space : YUV
Chroma subsampling : 4:2:0 (Type 2)
Bit depth : 10 bits
Bits/(Pixel*Frame) : 0.343
Stream size : 43.7 GiB (93%)
Writing library : ATEME Titan File 3.9.6 (4.9.6.4)
Language : English
Default : Yes
Forced : No
Color range : Limited
Color primaries : BT.2020
Transfer characteristics : PQ
Matrix coefficients : BT.2020 non-constant
Mastering display color primaries : BT.2020
Mastering display luminance : min: 0.0050 cd/m2, max: 1000 cd/m2
Maximum Content Light Level : 6733 cd/m2
Maximum Frame-Average Light Level : 626 cd/m2
Original source medium : Blu-ray

Audio #1
ID : 2
Format : AC-3
Format/Info : Audio Coding 3
Commercial name : Dolby Digital
Codec ID : A_AC3
Duration : 1 h 31 min
Bit rate mode : Constant
Bit rate : 448 kb/s
Channel(s) : 6 channels
Channel layout : L R C LFE Ls Rs
Sampling rate : 48.0 kHz
Frame rate : 31.250 FPS (1536 SPF)
Compression mode : Lossy
Stream size : 292 MiB (1%)
Title : Дубляж
Language : Russian
Service kind : Complete Main
Default : Yes
Forced : No

Audio #2
ID : 3
ID in the original source medium : 4353 (0x1101)
Format : DTS XLL
Format/Info : Digital Theater Systems
Commercial name : DTS-HD Master Audio
Codec ID : A_DTS
Duration : 1 h 31 min
Bit rate mode : Variable
Bit rate : 4 998 kb/s
Channel(s) : 8 channels
Channel layout : C L R LFE Lb Rb Lss Rss
Sampling rate : 48.0 kHz
Frame rate : 93.750 FPS (512 SPF)
Bit depth : 24 bits
Compression mode : Lossless
Stream size : 3.20 GiB (7%)
Title : Original
Language : English
Default : No
Forced : No
Original source medium : Blu-ray

Text #1
ID : 4
Format : UTF-8
Codec ID : S_TEXT/UTF8
Codec ID/Info : UTF-8 Plain Text
Duration : 1 h 24 min
Bit rate : 1 b/s
Count of elements : 26
Stream size : 1.18 KiB (0%)
Title : Forced
Language : Russian
Default : Yes
Forced : Yes

Text #2
ID : 5
Format : UTF-8
Codec ID : S_TEXT/UTF8
Codec ID/Info : UTF-8 Plain Text
Duration : 1 h 24 min
Bit rate : 96 b/s
Count of elements : 1030
Stream size : 59.8 KiB (0%)
Title : Full
Language : Russian
Default : No
Forced : No

Text #3
ID : 6
Format : UTF-8
Codec ID : S_TEXT/UTF8
Codec ID/Info : UTF-8 Plain Text
Duration : 1 h 24 min
Bit rate : 61 b/s
Count of elements : 1332
Stream size : 38.3 KiB (0%)
Title : Full
Language : English
Default : No
Forced : No

Text #4
ID : 7
Format : UTF-8
Codec ID : S_TEXT/UTF8
Codec ID/Info : UTF-8 Plain Text
Duration : 1 h 24 min
Bit rate : 71 b/s
Count of elements : 1588
Stream size : 44.0 KiB (0%)
Title : SDH
Language : English
Default : No
Forced : No

Menu
00:00:00.000 : Chapter 01
00:11:20.875 : Chapter 02
00:22:42.375 : Chapter 03
00:32:00.666 : Chapter 04
00:44:03.083 : Chapter 05
00:51:41.708 : Chapter 06
01:03:19.625 : Chapter 07
01:15:45.250 : Chapter 08
01:25:10.958 : Chapter 09




Скачать Красотка на взводе через торрент https://st-kp-yandex-net.translate.goog/images/film_iphone/iphone360_1262095.jpg Скачать, смотреть онлайн Красотка на взводе бесплантно в хорошем качестве Описание: Вышибала Линди плохо умеет управлять собственным гневом и постоянно боится кого-то убить в приступе ярости. В качестве ... 10 10 3
Торрент: Зарегистрирован [2021-12-04 18:32] · скачан: 45 раз
Статус: √ проверено
Размер: 47.17 GB
Как cкачать? Как скачать Красотка на взводе через торрент | UTorrent

% Раздел Тема Автор DL S | L
Фильмы 2021 [DVDrip, WEB-DLRip, HDrip] (DUB, MVO) [ 1.46 GB ] Красотка на взводе / Jolt | Мосфильм-Мастер | BDRip Twi7ter Скачать
6 | 1
Фильмы [HD 720p, 1080p] (Хороший звук DUB, MVO) [ 7.87 GB ] Красотка на взводе / Jolt | HDRezka Studio | 1080p bober100 Скачать
2 | 0
Фильмы 2021 [DVDrip, WEB-DLRip, HDrip] (DUB, MVO) [ 2.5 GB ] Красотка на взводе / Jolt | HDRezka Studio | HDRip-AVC Lithuania Скачать
1 | 0
Фильмы [HD 720p, 1080p] (Хороший звук DUB, MVO) [ 3.73 GB ] Красотка на взводе / Jolt | HDRezka Studio | 720p bober100 Скачать
1 | 0
Фильмы 2021 [DVDrip, WEB-DLRip, HDrip] (DUB, MVO) [ 746 MB ] Красотка на взводе / Jolt | Мосфильм-Мастер | BDRip bober100 Скачать
1 | 0
Фильмы 2021 [DVDrip, WEB-DLRip, HDrip] (DUB, MVO) [ 1.46 GB ] Красотка на взводе / Jolt | Мосфильм-Мастер | BDRip bober100 Скачать
1 | 0
Ultra HD (UHD: 2K, 4K, 8K) [ 9.79 GB ] Красотка на взводе / Jolt | iTunes | 2160p bober100 Скачать
2 | 0

28-11-2019 20:33  


Отключить вcю реклaмy на сайте, в т.ч. и в плеере онлайн просмотра!

    Дорогой пользователь! Огромная просьба, поблагодарите релизера, оцените раздачу и оставьте свои комментарий, если Вы скачали Красотка на взводе через торрент бесплатно!!
    Комментировать посты могут только пользователи прошедшие не сложную регистрацию
    Показать сообщения:    


    Красотка на взводе через торрент
    Скачать бесплатно Красотка на взводе
    Красотка на взводе скачать торрент
    Красотка на взводе смотреть онлайн
    Cкачать фильм Красотка на взводе бесплатно
    Красотка на взводе скачать торрент в хорошем качестве
    Красотка на взводе смотреть онлайн бесплатно в хорошем качестве
    Вы не можете начинать темы
    Вы не можете отвечать на сообщения
    Вы не можете редактировать свои сообщения
    Вы не можете удалять свои сообщения
    Вы не можете голосовать в опросах
    Вы не можете прикреплять файлы к сообщениям
    Вы можете скачивать файлы
    Красотка на взводе / Jolt [2021, Боевик, комедия, UHD BDRemux 2160p] Дубляж [Мосфильм-Мастер / Кинопоиск HD] смотреть онлайн, скачать торрент picoco.icu