Всегда рабочее зеркало без VPN и Proxy просто перед .vidak.icu напиши любое слово или цифру, Пример http://5oi.vidak.icu

>

7.4

iTunes

7.4

2 сезон

6.6

iTunes

1

6.9

1 сезон

7.2

iTunes

6.0

MVO

13

6.1

iTunes

8.3

Пиратка

30

ULTIMATE

pack

9.9

Лицензия

ВАЖНО

ИГРА 18+

pack

7.3

RePack

MK11

7.7

RePack

jed

7.8

RePack

fifa19

8.5

RePack

RDR2

RePack

NEED FOR SPEED™ PAYBACK

1 сезон

9 сезон

Бесстыжие 9 сезон

Все сериалы

все сериалы на PB.wtf

RePack

FAR CRY 5

Anonymous, добрый вечер, мы катастрофически не успеваем собрать деньги на оплату серверов, помогите нам пожалуйста 5,10,15р., для нас важна любая помощь . В качестве благодарности мы отключим Вам всю рекламу на сайте (укажите свой ник в строку Ваше имя)!

×
  
Magnet ссылка

5:32 / Сезон: 1 / Серии: 1-8 из 12 (Алишер Утев) [2021, Детектив, триллер, WEBRip 1080p] piratbit.org

5:32 через торрент piratbit.org

Раздают: 7 [ 1 MB/s ] Качают: 1 [ 0 KB/s ]
Размер: 8.79 GB | Добавлен: 6 д. назад | Торрент скачан:27 раз
Смотреть онлайн 5:32 | Скачать    Ребята, помогите собрать деньги на оплату серверов!!!

07-12-2021 17:08 5:32 Скачать торрент  

5:32
Год выпуска: 2021
Страна: Казахстан
Производство: SALEM SOCIAL MEDIA, AiTube, Rocket Stories
Жанр: Детектив, триллер
Продолжительность: ~ 00:40:00
Перевод: Не требуется
Субтитры: Присутствуют в моменты речи на Казахском.

Режиссер: Алишер Утев



В ролях: Абильмансур Сериков, Марат Амираев, Сагызбай Карабалин, Кобыланды Болат, Жалгас Жангазин, Бактияр Байсерик, Игорь Вербицкий, Ержан Джаманкулов, Таншолпан Кинжембетова

Описание: Шалкар, бывший следователь по особо тяжким преступлениям, давно на пенсии и пытается забыться с помощью алкоголя. Будни Шалкара нарушает сотрудник полиции и просит оказать помощь следствию. В городе объявился маньяк, чей почерк схож с убийцей, которого Шалкар ловил в 90-х годах.

Качество: WEBRip 1080p
Формат: MKV

Видео: MPEG-4 AVC, ~ 3800 Кбит/с, 1920x1080
Аудио: AAC, 2 ch, 140 Кбит/с
скриншот  скриншот  скриншот  скриншот  скриншот  

Общее
Уникальный идентификатор : 104408128713930044153853302221620356202 (0x4E8C462EE01002F23C20E5AFD5FFA46A)
Полное имя : C:\5.32 (2021)\5.32.Серия 01.mkv
Формат : Matroska
Версия формата : Version 4
Размер файла : 1,14 Гбайт
Продолжительность : 41 м. 20 с.
Общий поток : 3 942 Кбит/сек
Дата кодирования : UTC 2021-11-21 08:29:29
Программа кодирования : mkvmerge v26.0.0 ('In The Game') 32-bit
Библиотека кодирования : libebml v1.3.6 + libmatroska v1.4.9 / Lavf58.29.100

Видео
Идентификатор : 1
Формат : AVC
Формат/Информация : Advanced Video Codec
Профиль формата : High@L4.1
Настройки формата : CABAC / 4 Ref Frames
Параметр CABAC формата : Да
Параметр RefFrames формата : 4 кадра
Идентификатор кодека : V_MPEG4/ISO/AVC
Продолжительность : 41 м. 20 с.
Вид битрейта : Постоянный
Битрейт : 3 800 Кбит/сек
Номинальный битрейт : 4 800 Кбит/сек
Ширина : 1 920 пикселей
Высота : 1 080 пикселей
Соотношение сторон : 16:9
Режим частоты кадров : Постоянный
Частота кадров : 24,000 кадра/сек
Цветовое пространство : YUV
Субдискретизация насыщенности : 4:2:0
Битовая глубина : 8 бит
Тип развёртки : Прогрессивная
Бит/(Пиксели*Кадры) : 0.076
Размер потока : 1,10 Гбайт (96%)
Библиотека кодирования : x264 core 161
Настройки программы : cabac=1 / ref=1 / deblock=1:0:0 / analyse=0x3:0x113 / me=hex / subme=2 / psy=1 / psy_rd=1.00:0.00 / mixed_ref=0 / me_range=16 / chroma_me=1 / trellis=0 / 8x8dct=1 / cqm=0 / deadzone=21,11 / fast_pskip=1 / chroma_qp_offset=0 / threads=24 / lookahead_threads=8 / sliced_threads=0 / nr=0 / decimate=1 / interlaced=0 / bluray_compat=0 / constrained_intra=0 / bframes=3 / b_pyramid=2 / b_adapt=1 / b_bias=0 / direct=1 / weightb=1 / open_gop=0 / weightp=1 / keyint=250 / keyint_min=24 / scenecut=0 / intra_refresh=0 / rc_lookahead=10 / rc=cbr / mbtree=1 / bitrate=4800 / ratetol=1.0 / qcomp=0.60 / qpmin=0 / qpmax=69 / qpstep=4 / vbv_maxrate=4800 / vbv_bufsize=2400 / nal_hrd=cbr / filler=1 / ip_ratio=1.40 / aq=1:1.00
Default : Да
Forced : Нет
Цветовой диапазон : Limited
Основные цвета : BT.709
Характеристики трансфера : BT.709
Коэффициенты матрицы : BT.709

Аудио
Идентификатор : 2
Формат : AAC LC
Формат/Информация : Advanced Audio Codec Low Complexity
Идентификатор кодека : A_AAC-2
Продолжительность : 41 м. 20 с.
Битрейт : 140 Кбит/сек
Каналы : 2 канала
Channel layout : L R
Частота : 48,0 КГц
Частота кадров : 46,875 кадров/сек (1024 SPF)
Метод сжатия : С потерями
Задержка видео : -83 мс.
Размер потока : 41,3 Мбайт (4%)
Default : Да
Forced : Нет

Когда раздача ведётся путём добавления новых серий, при каждом добавлении создётся новый торрент. Чтобы начать докачку новой серии, пользователям необходимо сделать следующее:
(1) остановить скачивание,
(2) удалить старый торрент у себя из клиента (старые серии удалять не надо),
(3) скачать новый торрент и запустить его у себя в клиенте вместо старого, при этом указать клиенту путь в старую папку, куда и должно происходить скачивание новых серий.
Ваш клиент при этом должен произвести хеширование (проверку) старой папки (если не производит сам - помогите ему сделать это), и будет докачивать только те серии, которых у вас ещё нет. Старые серии при этом не удаляются, а продолжают раздаваться!
Eсли вы уже удалили старые серии, то предотвратить повторную закачку старых серий можно, отжав галочку в соответсвующих местах при запуске нового торрента. По возможности, желательно не удалять старые серии как можно дольше, чтобы релизёр не столько продолжал раздавать старые серии, а смог сконцентрироваться на новых.

piratbit.org



Скачать 5:32 через торрент https://i7.imageban.ru/out/2021/11/25/ed49bc2ae3965f02b43b7eb982d6f1f2.png Скачать, смотреть онлайн 5:32 бесплантно в хорошем качестве Описание: Шалкар, бывший следователь по особо тяжким преступлениям, давно на пенсии и пытается забыться с помощью алкоголя. Будни Шалкара ... 10 10 12
Торрент: Зарегистрирован [2022-01-22 03:54] · скачан: 27 раз
Статус: √ проверено
Размер: 8.79 GB
Как cкачать? Как скачать 5:32 через торрент | UTorrent



Последний раз редактировалось: bober100 (2022-01-22 03:54), всего редактировалось 1 раз

28-11-2019 20:33  

Отключить всю рекламу на сайте

07-01-2022 09:05 5:32 Скачать торрент  

Хороший сериал, смотрю не отрываясь!Спасибо большое за раздачу!!! piratbit.org



13-01-2022 16:23 5:32 Скачать торрент  

Меня очень зацепил сериал Жду продолжения!piratbit.org



    Дорогой пользователь! Огромная просьба, поблагодарите релизера, оцените раздачу и оставьте свои комментарий, если Вы скачали 5:32 через торрент бесплатно!
    Комментировать посты могут только пользователи прошедшие не сложную регистрацию
    Показать сообщения:    

    5:32 через торрент
    Скачать бесплатно 5:32
    5:32 скачать торрент
    5:32 смотреть онлайн
    Cкачать фильм 5:32 бесплатно
    5:32 скачать торрент в хорошем качестве
    5:32 смотреть онлайн бесплатно в хорошем качестве


    Вы не можете начинать темы
    Вы не можете отвечать на сообщения
    Вы не можете редактировать свои сообщения
    Вы не можете удалять свои сообщения
    Вы не можете голосовать в опросах
    Вы не можете прикреплять файлы к сообщениям
    Вы можете скачивать файлы