Достать ножи: Стеклянная луковица

MVO

Добыча

Дубляж

Уэнсдэй

1 сезон

Тор

Дубляж

13 клиническая

1 сезон

Жестокая ночь

MVO

Одни из нас

1 сезон

Deluxe

pack

Рекомендуем

30

Пиратка

ВАЖНО

ВАЖНО

Ghostwire

Пиратка

jed

RePack

nioh2

RePack

RDR2

RePack

NEED FOR SPEED™ PAYBACK

RePack

скачать торрент

Кинопоиск HD

Острые козырьки 6 сезон

6 сезон

FAR CRY 6

RePack

скачать торрент

Лицензия

скачать торрент

MVO

1

1 сезон

скачать торрент

1 сезон

скачать торрент

Лицензия

  

Непрощённая / The Unforgivable (Нора Финшелдт) [2021, Драма, UHD WEBRip 2160p] Дубляж [Невафильм / Netflix]

Непрощённая через торрент piratbit.org

Размер: 13.28 GB | Добавлен: 1 год 1 мес. назад | Торрент скачан:224 раза
Смотреть онлайн | Скачать | Поддержите нас   

10-12-2021 09:01 Непрощённая Скачать торрент  

Непрощённая
The Unforgivable

Год выпуска: 2021
Страна: Германия, США, Великобритания
Студия: Construction Film, Fortis Films, GK Films, Red Production Company
Жанр: Драма
Продолжительность: 01:54:06
Перевод: Дублированный | Невафильм по заказу Netflix
Субтитры: Русские (форсированные, полные), английские

Режиссер: Нора Финшелдт

rating

В ролях: Сандра Буллок, Джон Бернтал, Винсент Д’Онофрио, Виола Дэвис, Эшлинг Франчози, Ричард Томас, У. Эрл Браун, Роб Морган, Аарон Перл, Линда Эмонд, Джессика МакЛеод, Уильям Белло

Описание: Рут Слейтер выходит из тюрьмы, отсидев 20 лет за убийство полицейского. Женщине предстоит жить в обществе, которое не готово простить ей прошлые грехи.

Качество: UHD WEBRip 2160p
Формат: MKV

Видео: MPEG-H HEVC HDR , 3840x2160 (2,000), 15,5 Мбит/сек (0.078 b/px), 24.000 fps
Аудио #1: E-AC3, 640 kbps (CBR), 48.0 KHz, 6 ch, Russian
Аудио #2: E-AC3, 768 kbps (CBR), 48.0 KHz, 6 ch, English
скриншот  скриншот  скриншот  скриншот  

Общее
Уникальный идентификатор : 165429440944043983974131273222608735449 (0x7C748D28887F383119850ECF2BF54CD9)
Полное имя : D:фильмы и сериалыThe.Unforgivable.2021.2160p.mkv
Формат : Matroska
Версия формата : Version 4
Размер файла : 13,3 Гбайт
Продолжительность : 1 ч. 54 м.
Общий поток : 16,7 Мбит/сек
Название фильма : The Unforgivable
Дата кодирования : UTC 2021-12-10 11:23:06
Программа кодирования : mkvmerge v35.0.0 ('All The Love In The World') 64-bit
Библиотека кодирования : libebml v1.3.9 + libmatroska v1.5.2

Видео
Идентификатор : 1
Формат : HEVC
Формат/Информация : High Efficiency Video Coding
Профиль формата : Main 10@L5@Main
HDR format : SMPTE ST 2086, HDR10 compatible
Идентификатор кодека : V_MPEGH/ISO/HEVC
Продолжительность : 1 ч. 52 м.
Битрейт : 15,5 Мбит/сек
Ширина : 3 840 пикселей
Высота : 2 160 пикселей
Соотношение сторон : 16:9
Режим частоты кадров : Постоянный
Частота кадров : 24,000 кадра/сек
Цветовое пространство : YUV
Субдискретизация насыщенности : 4:2:0 (Type 2)
Битовая глубина : 10 бит
Бит/(Пиксели*Кадры) : 0.078
Размер потока : 12,2 Гбайт (92%)
Default : Да
Forced : Нет
Цветовой диапазон : Limited
Основные цвета : BT.2020
Характеристики трансфера : PQ
Коэффициенты матрицы : BT.2020 non-constant
Mastering display color primaries : Display P3
Mastering display luminance : min: 0.0050 cd/m2, max: 4000 cd/m2
Maximum Content Light Level : 1559 cd/m2
Maximum Frame-Average Light Level : 501 cd/m2

Аудио #1
Идентификатор : 2
Формат : E-AC-3
Формат/Информация : Enhanced AC-3
Коммерческое название : Dolby Digital Plus
Идентификатор кодека : A_EAC3
Продолжительность : 1 ч. 54 м.
Вид битрейта : Постоянный
Битрейт : 640 Кбит/сек
Каналы : 6 каналов
Channel layout : L R C LFE Ls Rs
Частота : 48,0 КГц
Частота кадров : 31,250 кадров/сек (1536 SPF)
Метод сжатия : С потерями
Размер потока : 522 Мбайт (4%)
Заголовок : Дубляж
Язык : Russian
Service kind : Complete Main
Default : Да
Forced : Нет

Аудио #2
Идентификатор : 3
Формат : E-AC-3 JOC
Формат/Информация : Enhanced AC-3 with Joint Object Coding
Коммерческое название : Dolby Digital Plus with Dolby Atmos
Идентификатор кодека : A_EAC3
Продолжительность : 1 ч. 54 м.
Вид битрейта : Постоянный
Битрейт : 768 Кбит/сек
Каналы : 6 каналов
Channel layout : L R C LFE Ls Rs
Частота : 48,0 КГц
Частота кадров : 31,250 кадров/сек (1536 SPF)
Метод сжатия : С потерями
Размер потока : 627 Мбайт (5%)
Заголовок : English
Язык : English
Service kind : Complete Main
Default : Нет
Forced : Нет
Complexity index : 16
Number of dynamic objects : 15
Bed channel count : 1 канал
Bed channel configuration : LFE

Текст #1
Идентификатор : 4
Формат : UTF-8
Идентификатор кодека : S_TEXT/UTF8
Идентификатор кодека/Информация : UTF-8 Plain Text
Продолжительность : 1 ч. 51 м.
Битрейт : 1 бит/сек
Count of elements : 23
Размер потока : 1,37 Кбайт (0%)
Заголовок : Forced
Язык : Russian
Default : Да
Forced : Нет

Текст #2
Идентификатор : 5
Формат : UTF-8
Идентификатор кодека : S_TEXT/UTF8
Идентификатор кодека/Информация : UTF-8 Plain Text
Продолжительность : 1 ч. 51 м.
Битрейт : 59 бит/сек
Count of elements : 955
Размер потока : 48,7 Кбайт (0%)
Заголовок : Russian
Язык : Russian
Default : Нет
Forced : Нет

Текст #3
Идентификатор : 6
Формат : UTF-8
Идентификатор кодека : S_TEXT/UTF8
Идентификатор кодека/Информация : UTF-8 Plain Text
Продолжительность : 1 ч. 43 м.
Битрейт : 44 бит/сек
Count of elements : 999
Размер потока : 33,5 Кбайт (0%)
Заголовок : Full
Язык : English
Default : Нет
Forced : Нет

Текст #4
Идентификатор : 7
Формат : UTF-8
Идентификатор кодека : S_TEXT/UTF8
Идентификатор кодека/Информация : UTF-8 Plain Text
Продолжительность : 1 ч. 51 м.
Битрейт : 48 бит/сек
Count of elements : 1178
Размер потока : 39,4 Кбайт (0%)
Заголовок : SDH
Язык : English
Default : Нет
Forced : Нет




Скачать Непрощённая через торрент https://i116.fastpic.org/big/2021/1210/25/d26a11d4d23ceea84db74abfa9a26425.jpg Скачать, смотреть онлайн Непрощённая бесплантно в хорошем качестве Описание: Рут Слейтер выходит из тюрьмы, отсидев 20 лет за убийство полицейского. Женщине предстоит жить в обществе, которое не готово ... 9.8 10 9
Торрент: Зарегистрирован [2021-12-10 11:42] · скачан: 224 раз
Статус: √ проверено
Размер: 13.28 GB
Как cкачать? Как скачать Непрощённая через торрент | UTorrent

% Раздел Тема Автор DL S | L
Фильмы (WEB-DL 720p, 1080p) [ 4.57 GB ] Непрощённая / The Unforgivable | DUB | 1080p killermax2013 Скачать
2 | 0
Фильмы 2021 [DVDrip, WEB-DLRip, HDrip] (DUB, MVO) [ 2.18 GB ] Непрощённая / The Unforgivable | Лицензия | DLRip Twi7ter Скачать
14 | 0
Фильмы 2021 [DVDrip, WEB-DLRip, HDrip] (DUB, MVO) [ 1.46 GB ] Непрощённая / The Unforgivable | Лицензия | DLRip Twi7ter Скачать
10 | 1
Фильмы 2021 [DVDrip, WEB-DLRip, HDrip] (DUB, MVO) [ 1.47 GB ] Непрощённая / The Unforgivable | DUB | DLRip bober100 Скачать
1 | 0
Фильмы 2021 [DVDrip, WEB-DLRip, HDrip] (DUB, MVO) [ 2.19 GB ] Непрощённая / The Unforgivable | DUB | DLRip bober100 Скачать
1 | 0
Фильмы 2021 [DVDrip, WEB-DLRip, HDrip] (DUB, MVO) [ 1.45 GB ] Непрощённая / The Unforgivable | DUB | DLRip-AVC bober100 Скачать
1 | 0
Фильмы (WEB-DL 720p, 1080p) [ 5.28 GB ] Непрощённая / The Unforgivable | | 1080p killermax2013 Скачать
1 | 0

28-11-2019 20:33  


Отключить вcю реклaмy на сайте, в т.ч. и в плеере онлайн просмотра!

25-12-2021 19:20 Непрощённая Скачать торрент  

Норм 8/10



    Дорогой пользователь! Огромная просьба, поблагодарите релизера, оцените раздачу и оставьте свои комментарий, если Вы скачали Непрощённая через торрент бесплатно!!
    Комментировать посты могут только пользователи прошедшие не сложную регистрацию
    Показать сообщения:    


    Непрощённая через торрент
    Скачать бесплатно Непрощённая
    Непрощённая скачать торрент
    Непрощённая смотреть онлайн
    Cкачать фильм Непрощённая бесплатно
    Непрощённая скачать торрент в хорошем качестве
    Непрощённая смотреть онлайн бесплатно в хорошем качестве
    Вы не можете начинать темы
    Вы не можете отвечать на сообщения
    Вы не можете редактировать свои сообщения
    Вы не можете удалять свои сообщения
    Вы не можете голосовать в опросах
    Вы не можете прикреплять файлы к сообщениям
    Вы можете скачивать файлы
    Непрощённая / The Unforgivable [2021, Драма, UHD WEBRip 2160p] Дубляж [Невафильм / Netflix] смотреть онлайн, скачать торрент picoco.icu