Достать ножи: Стеклянная луковица

MVO

Добыча

Дубляж

Уэнсдэй

1 сезон

Тор

Дубляж

13 клиническая

1 сезон

Жестокая ночь

MVO

Одни из нас

1 сезон

Deluxe

pack

Рекомендуем

30

Пиратка

ВАЖНО

ВАЖНО

Ghostwire

Пиратка

jed

RePack

nioh2

RePack

RDR2

RePack

NEED FOR SPEED™ PAYBACK

RePack

скачать торрент

Кинопоиск HD

Острые козырьки 6 сезон

6 сезон

FAR CRY 6

RePack

скачать торрент

Лицензия

скачать торрент

MVO

1

1 сезон

скачать торрент

1 сезон

скачать торрент

Лицензия

  

Веном 2 / Venom: Let There Be Carnage (Энди Серкис) [2021, Фантастика, боевик, триллер, приключения, UHD BDRemux 2160p, (Dolby Vision Profile 8)] Дубляж [СинеЛаб СаундМикс / Лицензия Blu-ray 4K EUR]

Веном 2 через торрент piratbit.org

Размер: 41.83 GB | Добавлен: 1 год 1 мес. назад | Торрент скачан:138 раз
Смотреть онлайн | Скачать | Поддержите нас   

10-12-2021 20:22 Веном 2 Скачать торрент  

Веном 2 | Venom: Let There Be Carnage
Год выпуска: 2021
Страна: США, Великобритания, Канада
Выпущено: Marvel Entertainment, Pascal Pictures, Sony Pictures Entertainment (SPE)
Жанр: Фантастика, боевик, триллер, приключения
Продолжительность: 01:37:33
Перевод: Дублированный | СинеЛаб СаундМикс | Лицензия Blu-ray 4K EUR
Субтитры: Русские (Forced, full), английские

Режиссер: Энди Серкис

rating

В ролях: Том Харди, Вуди Харрельсон, Мишель Уильямс, Наоми Харрис, Рид Скотт, Стивен Грэм, Пегги Лу, Сиан Уэббер, Мишель Гринидж, Роб Боуэн, Лоуренс Спеллман, Литтл Симз, Джек Бандейра, Олумиде Олорунфеми, Скробиус Пип, Амру Аль-Кадхи, Бо Сарджент, Брайан Коупленд, Стюарт Александр, Шон Делани

Описание: Эдди Брок пытается приспособиться к новой жизни, которую ему приходится делить с Веномом, поселившимся в его теле, мыслях и квартире. Но совместный быт не клеится, отношениям с Энн пришел конец, и с карьерой в журналистике тоже все не гладко. У Эдди появляется шанс реабилитироваться в профессии, сделав интервью с серийным убийцей Клетусом Кэссиди. Когда Кэссиди тоже становится носителем инопланетного симбиота, Брок и Веном вынуждены забыть старые обиды, чтобы выступить против еще более сильного и кровожадного монстра — Карнажа.

Качество: UHD BDRemux 2160p | Dolby Vision Profile 8
Формат: MKV

Видео: MPEG-H HEVC HDR, 3840x2160, 55.9 Mbit/s, 23.976 fps
Аудио #01: 48 kHz, AC3, 5.1, 640 Kbps | Дублированный | Лицензия (Blu-Ray EUR 4K) | RUS |
Аудио #02: 48 kHz, TrueHD, 7.1, 4291 Kbps | Оригинал | ENG |
Аудио #03: 48 kHz, AC3, 5.1, 640 Kbps | Оригинал | ENG |
скриншот  скриншот  скриншот  

скриншот  скриншот  скриншот  

General
Unique ID : 286153119476142628233332671171909494286 (0xD747160DC9CB5F7927AC4760FD31A60E)
Complete name : D:Video1Venom.Let.There.Be.Carnage.2021.Lic.BDREMUX.2160p.HDR.DVP8.seleZen.mkv
Format : Matroska
Format version : Version 4
File size : 41.8 GiB
Duration : 1 h 37 min
Overall bit rate mode : Variable
Overall bit rate : 61.6 Mb/s
Movie name : Venom Let There Be Carnage 2021 from seleZen
Encoded date : UTC 2021-12-13 12:04:19
Writing application : mkvmerge v59.0.0 ('Shining Star') 64-bit
Writing library : libebml v1.4.2 + libmatroska v1.6.4

Video
ID : 1
ID in the original source m : 4117 (0x1015)
Format : HEVC
Format/Info : High Efficiency Video Coding
Format profile : Main 10@L5.1@High
HDR format : Dolby Vision, Version 1.0, dvhe.08.06, BL+RPU, Blu-ray compatible / SMPTE ST 2086, HDR10 compatible
Codec ID : V_MPEGH/ISO/HEVC
Duration : 1 h 37 min
Bit rate : 55.9 Mb/s
Width : 3 840 pixels
Height : 2 160 pixels
Display aspect ratio : 16:9
Frame rate mode : Constant
Frame rate : 23.976 (24000/1001) FPS
Color space : YUV
Chroma subsampling : 4:2:0 (Type 2)
Bit depth : 10 bits
Bits/(Pixel*Frame) : 0.281
Stream size : 38.0 GiB (91%)
Language : English
Default : No
Forced : No
Color range : Limited
Color primaries : BT.2020
Transfer characteristics : PQ
Matrix coefficients : BT.2020 non-constant
Mastering display color pri : BT.2020
Mastering display luminance : min: 0.0001 cd/m2, max: 1000 cd/m2
Maximum Content Light Level : 7659 cd/m2
Maximum Frame-Average Light : 522 cd/m2
Original source medium : Blu-ray

Audio #1
ID : 2
Format : AC-3
Format/Info : Audio Coding 3
Commercial name : Dolby Digital
Codec ID : A_AC3
Duration : 1 h 37 min
Bit rate mode : Constant
Bit rate : 640 kb/s
Channel(s) : 6 channels
Channel layout : L R C LFE Ls Rs
Sampling rate : 48.0 kHz
Frame rate : 31.250 FPS (1536 SPF)
Compression mode : Lossy
Stream size : 445 MiB (1%)
Title : Дубляж [License]
Language : Russian
Service kind : Complete Main
Default : Yes
Forced : Yes

Audio #2
ID : 3
Format : MLP FBA 16-ch
Format/Info : Meridian Lossless Packing FBA with 16-channel presentation
Commercial name : Dolby TrueHD with Dolby Atmos
Codec ID : A_TRUEHD
Duration : 1 h 37 min
Bit rate mode : Variable
Bit rate : 4 291 kb/s
Maximum bit rate : 7 512 kb/s
Channel(s) : 8 channels
Channel layout : L R C LFE Ls Rs Lb Rb
Sampling rate : 48.0 kHz
Frame rate : 1 200.000 FPS (40 SPF)
Compression mode : Lossless
Stream size : 2.92 GiB (7%)
Title : Original
Language : English
Default : No
Forced : No
Number of dynamic objects : 11
Bed channel count : 1 channel
Bed channel configuration : LFE

Audio #3
ID : 4
Format : AC-3
Format/Info : Audio Coding 3
Commercial name : Dolby Digital
Codec ID : A_AC3
Duration : 1 h 37 min
Bit rate mode : Constant
Bit rate : 640 kb/s
Channel(s) : 6 channels
Channel layout : L R C LFE Ls Rs
Sampling rate : 48.0 kHz
Frame rate : 31.250 FPS (1536 SPF)
Compression mode : Lossy
Stream size : 445 MiB (1%)
Language : English
Service kind : Complete Main
Default : No
Forced : No

Text #1
ID : 5
Format : UTF-8
Codec ID : S_TEXT/UTF8
Codec ID/Info : UTF-8 Plain Text
Duration : 1 h 36 min
Bit rate : 1 b/s
Count of elements : 24
Stream size : 1.13 KiB (0%)
Title : Forced
Language : Russian
Default : Yes
Forced : Yes

Text #2
ID : 6
Format : UTF-8
Codec ID : S_TEXT/UTF8
Codec ID/Info : UTF-8 Plain Text
Duration : 1 h 36 min
Bit rate : 72 b/s
Count of elements : 1086
Stream size : 50.7 KiB (0%)
Title : Full
Language : Russian
Default : No
Forced : No

Text #3
ID : 7
Format : UTF-8
Codec ID : S_TEXT/UTF8
Codec ID/Info : UTF-8 Plain Text
Duration : 1 h 35 min
Bit rate : 60 b/s
Count of elements : 1495
Stream size : 42.3 KiB (0%)
Title : Full
Language : English
Default : No
Forced : No

Text #4
ID : 8
Format : UTF-8
Codec ID : S_TEXT/UTF8
Codec ID/Info : UTF-8 Plain Text
Duration : 1 h 36 min
Bit rate : 71 b/s
Count of elements : 1860
Stream size : 50.5 KiB (0%)
Title : SDH
Language : English
Default : No
Forced : No

Menu
00:00:00.000 : Chapter 01
00:05:24.991 : Chapter 02
00:09:33.239 : Chapter 03
00:12:20.406 : Chapter 04
00:18:23.436 : Chapter 05
00:23:01.213 : Chapter 06
00:30:17.858 : Chapter 07
00:35:03.601 : Chapter 08
00:39:26.781 : Chapter 09
00:45:35.066 : Chapter 10
00:50:40.329 : Chapter 11
00:55:29.826 : Chapter 12
01:01:01.032 : Chapter 13
01:06:57.639 : Chapter 14
01:14:36.681 : Chapter 15
01:21:57.579 : Chapter 16




Скачать Веном 2 через торрент https://st-kp-yandex-net.translate.goog/images/film_iphone/iphone360_1227967.jpg Скачать, смотреть онлайн Веном 2 бесплантно в хорошем качестве Описание: Эдди Брок пытается приспособиться к новой жизни, которую ему приходится делить с Веномом, поселившимся в его теле, мыслях и ... 10 10 11
Торрент: Зарегистрирован [2021-12-13 15:54] · скачан: 138 раз
Статус: √ проверено
Размер: 41.83 GB
Как cкачать? Как скачать Веном 2 через торрент | UTorrent

% Раздел Тема Автор DL S | L
Фильмы 2021 [DVDrip, WEB-DLRip, HDrip] (DUB, MVO) [ 1.46 GB ] Веном 2 / Venom: Let There Be Carnage | Лицензия Blu-ray 4K EUR | BDRip Twi7ter Скачать
46 | 0

28-11-2019 20:33  


Отключить вcю реклaмy на сайте, в т.ч. и в плеере онлайн просмотра!

    Дорогой пользователь! Огромная просьба, поблагодарите релизера, оцените раздачу и оставьте свои комментарий, если Вы скачали Веном 2 через торрент бесплатно!!
    Комментировать посты могут только пользователи прошедшие не сложную регистрацию
    Показать сообщения:    


    Веном 2 через торрент
    Скачать бесплатно Веном 2
    Веном 2 скачать торрент
    Веном 2 смотреть онлайн
    Cкачать фильм Веном 2 бесплатно
    Веном 2 скачать торрент в хорошем качестве
    Веном 2 смотреть онлайн бесплатно в хорошем качестве
    Вы не можете начинать темы
    Вы не можете отвечать на сообщения
    Вы не можете редактировать свои сообщения
    Вы не можете удалять свои сообщения
    Вы не можете голосовать в опросах
    Вы не можете прикреплять файлы к сообщениям
    Вы можете скачивать файлы
    Веном 2 / Venom: Let There Be Carnage [2021, Фантастика, боевик, триллер, приключения, UHD BDRemux 2160p, ] Дубляж [СинеЛаб СаундМикс / Лицензия Blu-ray 4K EUR] смотреть онлайн, скачать торрент picoco.icu