Всегда рабочее зеркало без VPN и Proxy просто перед .vidak.icu напиши любое слово или цифру, Пример http://hax.vidak.icu

>

7.4

iTunes

7.4

2 сезон

6.6

iTunes

1

6.9

1 сезон

7.2

iTunes

6.0

MVO

13

6.1

iTunes

8.3

Пиратка

30

ULTIMATE

pack

9.9

Лицензия

ВАЖНО

ИГРА 18+

pack

7.3

RePack

MK11

7.7

RePack

jed

7.8

RePack

fifa19

8.5

RePack

RDR2

RePack

NEED FOR SPEED™ PAYBACK

1 сезон

9 сезон

Бесстыжие 9 сезон

Все сериалы

все сериалы на PB.wtf

RePack

FAR CRY 5

Anonymous, добрый вечер, мы катастрофически не успеваем собрать деньги на оплату серверов, помогите нам пожалуйста 5,10,15р., для нас важна любая помощь . В качестве благодарности мы отключим Вам всю рекламу на сайте (укажите свой ник в строку Ваше имя)!

×
  
Magnet ссылка

Короли / The Kings / Серии: 1-4 из 4 (Мат Уайткросс) [2021, документальный, спорт, биография, WEB-DL 720p] [MVO] (Первый канал) piratbit.org

Короли через торрент piratbit.org

Раздают: 1 [ 0 KB/s ]
Размер: 6.2 GB | Добавлен: 1 мес. 8 д. назад | Торрент скачан:3 раза
Смотреть онлайн Короли | Скачать    Ребята, помогите собрать деньги на оплату серверов!!!

13-12-2021 14:24 Короли Скачать торрент  

Короли / The Kings Год выпуска: 2021
Страна: США
Студия: Box to Box Films, Ingenious Media
Жанр: документальный, спорт, биография
Продолжительность: ~ 00:56:00

Перевод: Профессиональный (многоголосый закадровый) (по заказу Первого канала)
Субтитры: нет

Режиссёр: Мат Уайткросс / Mat Whitecross

Описание: После завершения карьеры Мухаммеда Али в 1981 году мир бокса был готов признать нового короля. В это время появились сразу четыре претендента на спортивный трон, чьи имена, в итоге, навсегда связала история. Сейчас их считают одними из величайших боксеров всех времен: они известны как четыре короля — Рэй Леонард, Роберто Дюран, Томас Хирнс и Марвин Хаглер. Эти легендарные спортсмены преодолели невероятные трудности и сложнейшие препятствия, а их бои стали величайшими событиями в истории бокса!

Автор релиза -

Локализованный видеоряд - все надписи на русском языке.
rating



Рекламы нет!

Качество видео: WEB-DL 720p
Формат видео: MKV
Видео: MPEG-4, 1280x720 (16:9), 25.000 fps, ~ 3830 kbps, 0.166 bit/pixel
Аудио: Русский AAC, 48000 Гц, 2ch, ~ 128 kbps
Общее
Уникальный идентификатор : 175263599580045392522562638000577197773 (0x83DA8A9D12768301638107ACB57236CD)
Полное имя : D:\The.Kings.S01.2021.WEB.720p-ylnian\The.Kings.S01.E01.2021.WEB.720p-ylnian.mkv
Формат : Matroska
Версия формата : Version 4
Размер файла : 1,55 Гбайт
Продолжительность : 56 м. 4 с.
Общий поток : 3 961 Кбит/сек
Дата кодирования : UTC 2021-11-29 07:28:01
Программа кодирования : mkvmerge v63.0.0 ('Everything') 64-bit
Библиотека кодирования : libebml v1.4.2 + libmatroska v1.6.4

Видео
Идентификатор : 1
Формат : AVC
Формат/Информация : Advanced Video Codec
Профиль формата : High@L3.1
Настройки формата : CABAC / 4 Ref Frames
Параметр CABAC формата : Да
Параметр RefFrames формата : 4 кадра
Идентификатор кодека : V_MPEG4/ISO/AVC
Продолжительность : 56 м. 4 с.
Битрейт : 3 831 Кбит/сек
Ширина : 1 280 пикселей
Высота : 720 пикселей
Соотношение сторон : 16:9
Режим частоты кадров : Постоянный
Частота кадров : 25,000 кадров/сек
Цветовое пространство : YUV
Субдискретизация насыщенности : 4:2:0
Битовая глубина : 8 бит
Тип развёртки : Прогрессивная
Бит/(Пиксели*Кадры) : 0.166
Размер потока : 1,50 Гбайт (97%)
Язык : English
Default : Да
Forced : Нет

Аудио
Идентификатор : 2
Формат : AAC LC
Формат/Информация : Advanced Audio Codec Low Complexity
Идентификатор кодека : A_AAC-2
Продолжительность : 56 м. 4 с.
Битрейт : 128 Кбит/сек
Каналы : 2 канала
Channel layout : L R
Частота : 48,0 КГц
Частота кадров : 46,875 кадров/сек (1024 SPF)
Метод сжатия : С потерями
Размер потока : 51,3 Мбайт (3%)
Язык : Russian
Default : Да
Forced : Нет
01. Из гетто к золоту и славе / Ghetto to Gold to Glory
Шугар Рэй Леонард — обаятельный, успешный и необычайно талантливый — его называли новым Али и любимцем американцев. Он стал олицетворением эпохи Рейгана.

02. Плоть и кровь / Flesh & Blood
Томас Хирнс, прозванный «Наемным убийцей», происходил из низших слоев Детройта. Он стал миротворцем для жителей города во время обострения расовых конфликтов.

03. Воля к победе / The Will to Win
«Изумительный» Марвин Хаглер — известен как боксер-трудяга, оказавшийся на вершине благодаря усердным тренировкам, целеустремленности и готовности жертвовать собой во имя результата.
Раздача ведётся путём добавления новых серий; при каждом добавлении создаётся новый торрент. Чтобы начать докачку новой серии, пользователям необходимо сделать следующее:
- Остановить скачивание.
- Удалить старый торрент у себя из клиента (старые серии удалять не надо).
- Скачать новый торрент и запустить его у себя в клиенте вместо старого, при этом указать клиенту путь в старую папку куда и должно происходить скачивание новых серий.

Ваш клиент при этом должен произвести хеширование (проверку) старой папки (если не производит сам - помогите ему сделать это), и будет докачивать только те серии которых у вас ещё нет. Старые серии при этом не удаляются, а продолжают раздаваться!
Если вы уже удалили старые серии, то предотвратить повторную закачку старых серий можно, отжав галочку в соответствующих местах при запуске нового торрента. По возможности, желательно не удалять старые серии как можно дольше, чтобы релизер не столько продолжал раздавать старые серии, а смог сконцентрироваться на новых.
скриншот  скриншот  скриншот  
piratbit.org



Скачать Короли через торрент https://i116.fastpic.org/big/2021/1129/77/c93a83c10d5552d66f9d4ca77af51f77.jpg Скачать, смотреть онлайн Короли бесплантно в хорошем качестве Описание: После завершения карьеры Мухаммеда Али в 1981 году мир бокса был готов признать нового короля. В это время появились сразу четыре ... 5 10 1
Торрент: Зарегистрирован [2021-12-20 15:16] · скачан: 3 раз
Статус: √ проверено
Размер: 6.2 GB
Как cкачать? Как скачать Короли через торрент | UTorrent

28-11-2019 20:33  

Отключить всю рекламу на сайте

    Дорогой пользователь! Огромная просьба, поблагодарите релизера, оцените раздачу и оставьте свои комментарий, если Вы скачали Короли через торрент бесплатно!
    Комментировать посты могут только пользователи прошедшие не сложную регистрацию
    Показать сообщения:    

    Короли через торрент
    Скачать бесплатно Короли
    Короли скачать торрент
    Короли смотреть онлайн
    Cкачать фильм Короли бесплатно
    Короли скачать торрент в хорошем качестве
    Короли смотреть онлайн бесплатно в хорошем качестве


    Вы не можете начинать темы
    Вы не можете отвечать на сообщения
    Вы не можете редактировать свои сообщения
    Вы не можете удалять свои сообщения
    Вы не можете голосовать в опросах
    Вы не можете прикреплять файлы к сообщениям
    Вы можете скачивать файлы