Всегда рабочее зеркало без VPN и Proxy просто перед .vidak.icu напиши любое слово или цифру, Пример http://tn54.vidak.icu

MVO

2 сезон

1 сезон

1

1 сезон

iTunes

2 сезон

13

1 сезон

Распродажа

pack

Рекомендуем

Пиратка

30

ВАЖНО

RePack

MK11

RePack

jed

RePack

fifa19

RePack

RDR2

RePack

NEED FOR SPEED™ PAYBACK

Кинопоиск HD

6 сезон

 Острые козырьки 6 сезон

Все сериалы

все сериалы на PB.wtf

RePack

FAR CRY 5

Anonymous, нам критически не хватает 5601 руб. на оплату серверов и переферии за Апрель, помоги нам пожалуйста, вся надежда только на тебя. В благодарность мы отключим тебе всю рекламу на сайте!

×
  
Magnet ссылка

Генералы песчаных карьеров / The Sandpit Generals / The Defiant / The Wild Pack (Холл Бартлетт) [1971, Драма, HDTV 1080i] [Dub] piratbit.org

Генералы песчаных карьеров через торрент piratbit.org

Размер: 3.18 GB | Добавлен: 5 мес. 9 д. назад | Торрент скачан:14 раз
Смотреть онлайн Генералы песчаных карьеров | Скачать    Ребята, помогите собрать деньги на оплату серверов!!!

13-12-2021 14:52 Генералы песчаных карьеров Скачать торрент  

Генералы песчаных карьеров / The Sandpit Generals / The Defiant / The Wild Pack

Год выпуска: 1971
Страна: США
Жанр: Драма
Продолжительность: 01:28:43
Перевод: Профессиональный (дублированный)
Субтитры: нет

Режиссер: Холл Бартлетт / Hall Bartlett

В ролях: Кент Лэйн, Тиша Стерлинг, Доривал Каимми, Джон Рубинштейн, Алехандро Рей, Буч Патрик, Адемар да Силва, Алойзиу ди Оливейра, Марк Де Вриз, Джимми Фрейзер, Фредди Гедеон, Уильям Хобсон, Гильерме Ламунье

Описание: В народе их называют — «генералы песчаных карьеров». Эти парни готовы сражаться за кусок хлеба, и не позавидовать тому, кто окажется у них на пути — эти мальчишки опасны и жестки. Однако и у них есть сердца, есть желание любить и быть любимыми. Поэтому, когда беспризорники знакомятся с девушкой Дорой и ее братом, которых родственники выгнали на улицу, «капитаны песка» дают новым сиротам кров, еду и защиту. Добрая, отзывчивая и бесстрашная Дора быстро вливается в мужской коллектив, заменяя одиноким мальчишкам и сестру, и мать. Вместе они совершают немало дерзких ограблений, не подозревая, что дни их бандитской «коммуны» сочтены…

По роману Жоржи Амаду "Капитаны песка".

rating
Все надписи на русском языке.
Покадровая реставрация по заказу "Первого канала", плёнка взята из Госфильмофонда, титры обрезаны.


Тип релиза: HDTV 1080i
Контейнер: MKV
Видео: MPEG4 Video (H264) 1920x1080 25fps ~4.800 kbps
Аудио: MPEG Audio 48000Hz stereo 192kbps
General
Complete name : Генералы песчаных карьеров (1971) HDTV 1080i.mkv
Format : Matroska
Format version : Version 4 / Version 2
File size : 3.18 GiB
Duration : 1 h 28 min
Overall bit rate : 5 130 kb/s
Writing application : VideoReDo (Lavf58.29.100)
Writing library : VideoReDo (Lavf58.29.100)
ErrorDetectionType : Per level 1

Video
ID : 1
Format : AVC
Format/Info : Advanced Video Codec
Format profile : High@L4
Format settings : CABAC / 4 Ref Frames
Format settings, CABAC : Yes
Format settings, ReFrames : 4 frames
Codec ID : V_MPEG4/ISO/AVC
Duration : 1 h 28 min
Bit rate : 4 836 kb/s
Width : 1 920 pixels
Height : 1 080 pixels
Display aspect ratio : 16:9
Frame rate mode : Constant
Frame rate : 25.000 FPS
Standard : Component
Color space : YUV
Chroma subsampling : 4:2:0
Bit depth : 8 bits
Scan type : Interlaced
Scan type, store method : Separated fields
Scan order : Top Field First
Bits/(Pixel*Frame) : 0.093
Stream size : 3.00 GiB (94%)
Default : No
Forced : No
Color range : Limited
Color primaries : BT.709
Transfer characteristics : BT.709
Matrix coefficients : BT.709

Audio
ID : 2
Format : MPEG Audio
Format version : Version 1
Format profile : Layer 2
Codec ID : A_MPEG/L2
Codec ID/Hint : MP2
Duration : 1 h 28 min
Bit rate mode : Constant
Bit rate : 192 kb/s
Channel(s) : 2 channels
Sampling rate : 48.0 kHz
Compression mode : Lossy
Stream size : 122 MiB (4%)
Language : Russian
Default : Yes
Forced : No
скриншот  скриншот  скриншот  
piratbit.org



Скачать Генералы песчаных карьеров через торрент http://i54.fastpic.ru/big/2013/0203/ed/556113bb210085dc1bb081e42beea5ed.jpg Скачать, смотреть онлайн Генералы песчаных карьеров бесплантно в хорошем качестве Описание: В народе их называют — «генералы песчаных карьеров». Эти парни готовы сражаться за кусок хлеба, и не позавидовать тому, кто ... 10 10 4
Торрент: Зарегистрирован [2021-12-13 14:52] · скачан: 14 раз
Статус: √ проверено
Размер: 3.18 GB
Как cкачать? Как скачать Генералы песчаных карьеров через торрент | UTorrent

28-11-2019 20:33  

Отключить всю рекламу на сайте

    Дорогой пользователь! Огромная просьба, поблагодарите релизера, оцените раздачу и оставьте свои комментарий, если Вы скачали Генералы песчаных карьеров через торрент бесплатно!
    Комментировать посты могут только пользователи прошедшие не сложную регистрацию
    Показать сообщения:    

    Генералы песчаных карьеров через торрент
    Скачать бесплатно Генералы песчаных карьеров
    Генералы песчаных карьеров скачать торрент
    Генералы песчаных карьеров смотреть онлайн
    Cкачать фильм Генералы песчаных карьеров бесплатно
    Генералы песчаных карьеров скачать торрент в хорошем качестве
    Генералы песчаных карьеров смотреть онлайн бесплатно в хорошем качестве


    Вы не можете начинать темы
    Вы не можете отвечать на сообщения
    Вы не можете редактировать свои сообщения
    Вы не можете удалять свои сообщения
    Вы не можете голосовать в опросах
    Вы не можете прикреплять файлы к сообщениям
    Вы можете скачивать файлы