Всегда рабочее зеркало без VPN и Proxy просто перед .vidak.icu напиши любое слово или цифру, Пример http://xlt1.vidak.icu

MVO

MVO

1 сезон

1

1 сезон

iTunes

1 сезон

13

1 сезон

Deluxe

pack

Рекомендуем

Repack

30

ВАЖНО

RePack

MK11

RePack

jed

RePack

fifa19

RePack

RDR2

RePack

NEED FOR SPEED™ PAYBACK

Кинопоиск HD

6 сезон

 Острые козырьки 6 сезон

Все сериалы

все сериалы на PB.wtf

RePack

FAR CRY 5
  
Magnet ссылка

Лига монстров / Rumble (Хамиш Грив) [2021, Мультфильм, фэнтези, комедия, приключения, семейный, спорт, WEB-DL 1080p] DUB [iTunes] piratbit.org

Лига монстров через торрент piratbit.org

Размер: 5.93 GB | Добавлен: 6 мес. назад | Торрент скачан:228 раз
Смотреть онлайн Лига монстров | Скачать    Ребята, помогите собрать деньги на оплату серверов!!!

23-12-2021 19:31 Лига монстров Скачать торрент  

Лига монстров
Rumble

Год выпуска: 2021
Страна: США, Австралия, Канада
Выпущено: Paramount Animation, Paramount Pictures, Reel FX Creative Studios, Walden Media, WWE Studios
Жанр: Мультфильм, фэнтези, комедия, приключения, семейный, спорт
Продолжительность: 01:34:53
Перевод: Дублированный | iTunes
Субтитры: Русские (Forced, Full), английские

Режиссер: Хамиш Грив

rating

В ролях: Уилл Арнетт, Терри Крюс, Джеральдин Вишванатан, Джо Аноаи, Тони Данза, Бен Шварц, Джимми Татро, Ребекка Куинн, Фред Меламед, Бриджет Эверетт, Карлос Гомес, Майкл Баффер, Чарльз Баркли, Стефен А. Смит, Крис Юбэнк

Описание: В мире, где монстрический реслинг – обожаемый вид спорта, а монстры-спортсмены – настоящие звезды, девушка Винни мечтает пойти по стопам отца и начинает тренировать монстра-аутсайдера. Милашке-неудачнику предстоит пройти непростой путь под руководством юной, но суровой наставницы, чтобы стать чемпионом.

Качество: WEB-DL 1080p
Формат: MKV

Видео: MPEG-4 AVC, 7914 Кбит/с, 1920x800, 23.976 fps
Аудио #01: 48 kHz, AC3, 5.1, 384 Kbps | Дублированный | iTunes | RUS |
Аудио #02: 48 kHz, Е-AC3, 5.1, 640 Kbps | Оригинал | ENG |
скриншот  скриншот  скриншот  скриншот  скриншот  

Complete name : Liga.monstrov.2021.WEB-DL.1080p.ELEKTRI4KA.UNIONGANG.mkv
Format : Matroska
Format version : Version 4
File size : 5.93 GiB
Duration : 1 h 34 min
Overall bit rate : 8 940 kb/s
Movie name : Liga.monstrov.2021.WEB-DL.1080p.ELEKTRI4KA.UNIONGANG.
Encoded date : UTC 2022-02-03 19:04:45
Writing application : mkvmerge v8.3.0 ('Over the Horizon') 32bit
Writing library : libebml v1.3.1 + libmatroska v1.4.2

Video
ID : 1
Format : AVC
Format/Info : Advanced Video Codec
Format profile : High@L4
Format settings : CABAC / 4 Ref Frames
Format settings, CABAC : Yes
Format settings, Reference frames : 4 frames
Codec ID : V_MPEG4/ISO/AVC
Duration : 1 h 34 min
Bit rate mode : Constant
Bit rate : 7 914 kb/s
Nominal bit rate : 10 000 kb/s
Width : 1 920 pixels
Height : 800 pixels
Display aspect ratio : 2.40:1
Frame rate mode : Constant
Frame rate : 24.000 FPS
Color space : YUV
Chroma subsampling : 4:2:0
Bit depth : 8 bits
Scan type : Progressive
Bits/(Pixel*Frame) : 0.215
Stream size : 5.24 GiB (89%)
Default : Yes
Forced : No
Color range : Limited
Color primaries : BT.709
Transfer characteristics : BT.709
Matrix coefficients : BT.709

Audio #1
ID : 2
Format : AC-3
Format/Info : Audio Coding 3
Commercial name : Dolby Digital
Codec ID : A_AC3
Duration : 1 h 34 min
Bit rate mode : Constant
Bit rate : 384 kb/s
Channel(s) : 6 channels
Channel layout : L R C LFE Ls Rs
Sampling rate : 48.0 kHz
Frame rate : 31.250 FPS (1536 SPF)
Compression mode : Lossy
Stream size : 261 MiB (4%)
Title : DUB (iTunes)
Language : Russian
Service kind : Complete Main
Default : Yes
Forced : Yes

Audio #2
ID : 3
Format : E-AC-3
Format/Info : Enhanced AC-3
Commercial name : Dolby Digital Plus
Codec ID : A_EAC3
Duration : 1 h 34 min
Bit rate mode : Constant
Bit rate : 640 kb/s
Channel(s) : 6 channels
Channel layout : L R C LFE Ls Rs
Sampling rate : 48.0 kHz
Frame rate : 31.250 FPS (1536 SPF)
Compression mode : Lossy
Stream size : 434 MiB (7%)
Title : Original
Language : English
Service kind : Complete Main
Default : No
Forced : No

Text #1
ID : 4
Format : UTF-8
Codec ID : S_TEXT/UTF8
Codec ID/Info : UTF-8 Plain Text
Duration : 1 h 32 min
Bit rate : 2 b/s
Count of elements : 44
Stream size : 1.77 KiB (0%)
Title : Forced
Language : Russian
Default : Yes
Forced : Yes

Text #2
ID : 5
Format : UTF-8
Codec ID : S_TEXT/UTF8
Codec ID/Info : UTF-8 Plain Text
Duration : 1 h 33 min
Bit rate : 116 b/s
Count of elements : 1400
Stream size : 79.9 KiB (0%)
Title : Full
Language : Russian
Default : No
Forced : No

Text #3
ID : 6
Format : UTF-8
Codec ID : S_TEXT/UTF8
Codec ID/Info : UTF-8 Plain Text
Duration : 1 h 31 min
Bit rate : 83 b/s
Count of elements : 1633
Stream size : 55.8 KiB (0%)
Title : English
Language : English
Default : No
Forced : No

piratbit.org



Скачать Лига монстров через торрент https://i116.fastpic.org/big/2021/1218/9e/b784c9ccb03d73551900135ffeb6f49e.jpg Скачать, смотреть онлайн Лига монстров бесплантно в хорошем качестве Описание: В мире, где монстрический реслинг – обожаемый вид спорта, а монстры-спортсмены – настоящие звезды, девушка Винни мечтает пойти по ... 10 10 14
Торрент: Зарегистрирован [2022-02-03 19:27] · скачан: 228 раз
Статус: √ проверено
Размер: 5.93 GB
Как cкачать? Как скачать Лига монстров через торрент | UTorrent

% Раздел Тема Автор DL S | L
Иностранные мультфильмы [ 2.04 GB ] Лига монстров / Rumble [2021 мультфильм полномтеражный WEB-DLRip-AVC] от ExKinoRay Lithuania Скачать
2 | 0
T Иностранные мультфильмы [ 1.46 GB ] Лига монстров / Rumble [2021 Мультфильм WEB-DLRip] - [IVI] Twi7ter Скачать
8 | 0
T Зарубежные Мультфильмы (WEB-DL 720p, 1080p) [ 1.63 GB ] Лига монстров / Rumble [2021 Мультфильм WEB-DL 1080p] killermax2013 Скачать
6 | 0
Иностранные мультфильмы [ 1.46 GB ] Лига монстров / Rumble [2021 Мультфильм WEB-DLRip] bober100 Скачать
2 | 0

28-11-2019 20:33  

Отключить вcю реклaмy на сайте

    Дорогой пользователь! Огромная просьба, поблагодарите релизера, оцените раздачу и оставьте свои комментарий, если Вы скачали Лига монстров через торрент бесплатно!
    Комментировать посты могут только пользователи прошедшие не сложную регистрацию
    Показать сообщения:    

    Лига монстров через торрент
    Скачать бесплатно Лига монстров
    Лига монстров скачать торрент
    Лига монстров смотреть онлайн
    Cкачать фильм Лига монстров бесплатно
    Лига монстров скачать торрент в хорошем качестве
    Лига монстров смотреть онлайн бесплатно в хорошем качестве


    Вы не можете начинать темы
    Вы не можете отвечать на сообщения
    Вы не можете редактировать свои сообщения
    Вы не можете удалять свои сообщения
    Вы не можете голосовать в опросах
    Вы не можете прикреплять файлы к сообщениям
    Вы можете скачивать файлы