Всегда рабочее зеркало без VPN и Proxy просто перед .vidak.icu напиши любое слово или цифру, Пример http://3li.vidak.icu

>

7.4

iTunes

7.4

2 сезон

6.6

iTunes

1

6.9

1 сезон

7.2

iTunes

6.0

MVO

13

6.1

iTunes

8.3

Пиратка

30

ULTIMATE

pack

9.9

Лицензия

ВАЖНО

ИГРА 18+

pack

7.3

RePack

MK11

7.7

RePack

jed

7.8

RePack

fifa19

8.5

RePack

RDR2

RePack

NEED FOR SPEED™ PAYBACK

1 сезон

9 сезон

Бесстыжие 9 сезон

Все сериалы

все сериалы на PB.wtf

RePack

FAR CRY 5

Anonymous, добрый вечер, мы катастрофически не успеваем собрать деньги на оплату серверов, помогите нам пожалуйста 5,10,15р., для нас важна любая помощь . В качестве благодарности мы отключим Вам всю рекламу на сайте (укажите свой ник в строку Ваше имя)!

×
  
Magnet ссылка

Лига монстров / Rumble (Хамиш Грив) [2021, Мультфильм, фэнтези, комедия, приключения, семейный, спорт, WEB-DL 1080p] DVO [Pazl Voice] piratbit.org

Лига монстров через торрент piratbit.org

Раздают: 27 [ 150 KB/s ]
Размер: 5.97 GB | Добавлен: 1 мес. 4 д. назад | Торрент скачан:299 раз
Смотреть онлайн Лига монстров | Скачать    Ребята, помогите собрать деньги на оплату серверов!!!

23-12-2021 19:31 Лига монстров Скачать торрент  

Лига монстров
Rumble

Год выпуска: 2021
Страна: США, Австралия, Канада
Выпущено: Paramount Animation, Paramount Pictures, Reel FX Creative Studios, Walden Media, WWE Studios
Жанр: Мультфильм, фэнтези, комедия, приключения, семейный, спорт
Продолжительность: 01:34:53
Перевод: Любительский (двухголосый) | Pazl Voice
Субтитры: Aнглийские

Режиссер: Хамиш Грив

rating

В ролях: Уилл Арнетт, Терри Крюс, Джеральдин Вишванатан, Джо Аноаи, Тони Данза, Бен Шварц, Джимми Татро, Ребекка Куинн, Фред Меламед, Бриджет Эверетт, Карлос Гомес, Майкл Баффер, Чарльз Баркли, Стефен А. Смит, Крис Юбэнк

Описание: В мире, где монстрический реслинг – обожаемый вид спорта, а монстры-спортсмены – настоящие звезды, девушка Винни мечтает пойти по стопам отца и начинает тренировать монстра-аутсайдера. Милашке-неудачнику предстоит пройти непростой путь под руководством юной, но суровой наставницы, чтобы стать чемпионом.

Качество: WEB-DL 1080p
Формат: MKV

Видео: MPEG-4 AVC, 7914 Кбит/с, 1920x800, 23.976 fps
Аудио #01: 48 kHz, AC3, 5.1, 448 Kbps | Pazl Voice | RUS |
Аудио #02: 48 kHz, AC3, 5.1, E-640 Kbps | Оригинал | ENG |
скриншот  скриншот  скриншот  скриншот  скриншот  

Общее
Уникальный идентификатор : 263383422167273590698777440076374789198 (0xC625CD4D4C1E0E83018EA82E66E0CC4E)
Полное имя : E:TorrentsRumble.2021.WEB-DL.1080p_от New-Team.mkv
Формат : Matroska
Версия формата : Version 4
Размер файла : 5,97 Гбайт
Продолжительность : 1 ч. 34 м.
Общий поток : 9 004 Кбит/сек
Название фильма : Rumble.2021.WEB-DL.1080p_от New-Team
Дата кодирования : UTC 2021-12-17 19:26:40
Программа кодирования : mkvmerge v59.0.0 ('Shining Star') 64-bit
Библиотека кодирования : libebml v1.4.2 + libmatroska v1.6.4

Видео
Идентификатор : 1
Формат : AVC
Формат/Информация : Advanced Video Codec
Профиль формата : High@L4
Настройки формата : CABAC / 4 Ref Frames
Параметр CABAC формата : Да
Параметр RefFrames формата : 4 кадра
Идентификатор кодека : V_MPEG4/ISO/AVC
Продолжительность : 1 ч. 34 м.
Вид битрейта : Постоянный
Битрейт : 7 914 Кбит/сек
Номинальный битрейт : 10 000 Кбит/сек
Ширина : 1 920 пикселей
Высота : 800 пикселей
Соотношение сторон : 2,40:1
Режим частоты кадров : Постоянный
Частота кадров : 24,000 кадра/сек
Цветовое пространство : YUV
Субдискретизация насыщенности : 4:2:0
Битовая глубина : 8 бит
Тип развёртки : Прогрессивная
Бит/(Пиксели*Кадры) : 0.215
Размер потока : 5,24 Гбайт (88%)
Default : Да
Forced : Нет
Цветовой диапазон : Limited
Основные цвета : BT.709
Характеристики трансфера : BT.709
Коэффициенты матрицы : BT.709

Аудио #1
Идентификатор : 2
Формат : AC-3
Формат/Информация : Audio Coding 3
Коммерческое название : Dolby Digital
Идентификатор кодека : A_AC3
Продолжительность : 1 ч. 34 м.
Вид битрейта : Постоянный
Битрейт : 448 Кбит/сек
Каналы : 6 каналов
Channel layout : L R C LFE Ls Rs
Частота : 48,0 КГц
Частота кадров : 31,250 кадров/сек (1536 SPF)
Метод сжатия : С потерями
Размер потока : 304 Мбайт (5%)
Заголовок : [DVO] Pazl Voice
Язык : Russian
Service kind : Complete Main
Default : Да
Forced : Нет

Аудио #2
Идентификатор : 3
Формат : E-AC-3
Формат/Информация : Enhanced AC-3
Коммерческое название : Dolby Digital Plus
Идентификатор кодека : A_EAC3
Продолжительность : 1 ч. 34 м.
Вид битрейта : Постоянный
Битрейт : 640 Кбит/сек
Каналы : 6 каналов
Channel layout : L R C LFE Ls Rs
Частота : 48,0 КГц
Частота кадров : 31,250 кадров/сек (1536 SPF)
Метод сжатия : С потерями
Размер потока : 434 Мбайт (7%)
Язык : English
Service kind : Complete Main
Default : Нет
Forced : Нет

Текст
Идентификатор : 4
Формат : UTF-8
Идентификатор кодека : S_TEXT/UTF8
Идентификатор кодека/Информация : UTF-8 Plain Text
Продолжительность : 1 ч. 31 м.
Битрейт : 83 бит/сек
Count of elements : 1633
Размер потока : 55,8 Кбайт (0%)
Заголовок : English
Язык : English
Default : Нет
Forced : Нет

piratbit.org



Скачать Лига монстров через торрент https://i116.fastpic.org/big/2021/1218/9e/b784c9ccb03d73551900135ffeb6f49e.jpg Скачать, смотреть онлайн Лига монстров бесплантно в хорошем качестве Описание: В мире, где монстрический реслинг – обожаемый вид спорта, а монстры-спортсмены – настоящие звезды, девушка Винни мечтает пойти по ... 10 10 12
Торрент: Зарегистрирован [2021-12-23 19:31] · скачан: 299 раз
Статус: T временная
Размер: 5.97 GB
Как cкачать? Как скачать Лига монстров через торрент | UTorrent

% Раздел Тема Автор DL S | L
T Иностранные мультфильмы [ 1.46 GB ] Лига монстров / Rumble [2021 Мультфильм WEB-DLRip] - [IVI] Twi7ter Скачать
94 | 5
T Зарубежные Мультфильмы (WEB-DL 720p, 1080p) [ 1.63 GB ] Лига монстров / Rumble [2021 Мультфильм WEB-DL 1080p] killermax2013 Скачать
22 | 0
T Иностранные мультфильмы [ 1.46 GB ] Лига монстров / Rumble [2021 Мультфильм WEB-DLRip] DUB [IVI] bober100 Скачать
9 | 0

28-11-2019 20:33  

Отключить всю рекламу на сайте

    Дорогой пользователь! Огромная просьба, поблагодарите релизера, оцените раздачу и оставьте свои комментарий, если Вы скачали Лига монстров через торрент бесплатно!
    Комментировать посты могут только пользователи прошедшие не сложную регистрацию
    Показать сообщения:    

    Лига монстров через торрент
    Скачать бесплатно Лига монстров
    Лига монстров скачать торрент
    Лига монстров смотреть онлайн
    Cкачать фильм Лига монстров бесплатно
    Лига монстров скачать торрент в хорошем качестве
    Лига монстров смотреть онлайн бесплатно в хорошем качестве


    Вы не можете начинать темы
    Вы не можете отвечать на сообщения
    Вы не можете редактировать свои сообщения
    Вы не можете удалять свои сообщения
    Вы не можете голосовать в опросах
    Вы не можете прикреплять файлы к сообщениям
    Вы можете скачивать файлы