Достать ножи: Стеклянная луковица

MVO

Добыча

Дубляж

Уэнсдэй

1 сезон

Тор

Дубляж

13 клиническая

1 сезон

Жестокая ночь

MVO

Одни из нас

1 сезон

Deluxe

pack

Рекомендуем

30

Пиратка

ВАЖНО

ВАЖНО

Ghostwire

Пиратка

jed

RePack

nioh2

RePack

RDR2

RePack

NEED FOR SPEED™ PAYBACK

RePack

скачать торрент

Кинопоиск HD

Острые козырьки 6 сезон

6 сезон

FAR CRY 6

RePack

скачать торрент

Лицензия

скачать торрент

MVO

1

1 сезон

скачать торрент

1 сезон

скачать торрент

Лицензия

  

Обитель зла: Раккун-Сити / Resident Evil: Welcome to Raccoon City (Йоханнес Робертс) [2021, Ужасы, фантастика, боевик, UHD WEB-DL 2160p] MVO [Jaskier]

Обитель зла: Раккун-Сити через торрент piratbit.org

Раздают: 5 [ 0 KB/s ]
Размер: 11.76 GB | Добавлен: 1 год 1 мес. назад | Торрент скачан:646 раз
Смотреть онлайн | Скачать | Поддержите нас   

23-12-2021 19:33 Обитель зла: Раккун-Сити Скачать торрент  

Обитель зла: Раккун-Сити
Resident Evil: Welcome to Raccoon City

Год выпуска: 2021
Страна: Германия, Канада, США
Выпущено: Constantin Film, Davis Films
Жанр: Ужасы, фантастика, боевик
Продолжительность: 01:47:42
Перевод: Профессиональный (многоголосый) | Jaskier
Субтитры: Aнглийские (Full, SDH)

Режиссер: Йоханнес Робертс

rating

В ролях: Ханна Джон-Кэймен, Кая Скоделарио, Нил МакДонаф, Том Хоппер, Робби Амелл, Донал Лог, Эван Джогиа, Ава Блэкуэлл, Лили Гао, Стефани Хокинс

Описание: Раккун-Сити, где когда-то располагался фармацевтический гигант Umbrella и вовсю бурлила жизнь, превратился в город-призрак. Компания давно переехала, но на ее месте глубоко под землей набирает силу великое зло. Когда оно вырвется на свободу, единственный шанс выжить уцелевшей горстке людей — сплотиться и узнать всю правду о корпорации Umbrellа.

Качество: UHD WEB-DL 2160p
Формат: MKV

Видео: HEVC/H.265 HDR, 3840x1600, ~14,6 Мbps, 24 fps
Аудио #01: 48 kHz, AC3, 5.1, 448 Kbps | Jaskier | RUS |
Аудио #02: 48 kHz, AC3, 5.1, E-640 Kbps | Оригинал | ENG |
скриншот  скриншот  скриншот  скриншот  

Общее
Уникальный идентификатор : 140940875755554497176180590353763347425 (0x6A0839AD4C77BC76BFF9B19FF94D2BE1)
Полное имя : Resident Evil_Welcome to Raccoon City.2021.HDR.WEB-DL.2160p.W.mkv
Формат : Matroska
Версия формата : Version 4
Размер файла : 11,8 Гбайт
Продолжительность : 1 ч. 47 м.
Общий поток : 15,7 Мбит/сек
Название фильма : Resident Evil_Welcome to Raccoon City.2021.HDR.WEB-DL.2160p
Дата кодирования : UTC 2021-12-23 18:55:30
Программа кодирования : mkvmerge v23.0.0 ('The Bride Said No') 64-bit
Библиотека кодирования : libebml v1.3.6 + libmatroska v1.4.9

Видео
Идентификатор : 1
Формат : HEVC
Формат/Информация : High Efficiency Video Coding
Профиль формата : Main 10@L5@Main
HDR format : SMPTE ST 2094 App 4, Version 1, HDR10+ Profile B compatible
Идентификатор кодека : V_MPEGH/ISO/HEVC
Продолжительность : 1 ч. 47 м.
Битрейт : 14,6 Мбит/сек
Ширина : 3 840 пикселей
Высота : 1 600 пикселей
Соотношение сторон : 2,40:1
Режим частоты кадров : Постоянный
Частота кадров : 23,976 (24000/1001) кадра/сек
Цветовое пространство : YUV
Субдискретизация насыщенности : 4:2:0
Битовая глубина : 10 бит
Бит/(Пиксели*Кадры) : 0.099
Размер потока : 10,9 Гбайт (93%)
Язык : English
Default : Да
Forced : Нет
Цветовой диапазон : Limited
Основные цвета : BT.2020
Характеристики трансфера : PQ
Коэффициенты матрицы : BT.2020 non-constant
Mastering display color primaries : Display P3
Mastering display luminance : min: 0.0001 cd/m2, max: 1000 cd/m2
Maximum Content Light Level : 622 cd/m2
Maximum Frame-Average Light Level : 242 cd/m2

Аудио #1
Идентификатор : 2
Формат : AC-3
Формат/Информация : Audio Coding 3
Коммерческое название : Dolby Digital
Идентификатор кодека : A_AC3
Продолжительность : 1 ч. 47 м.
Вид битрейта : Постоянный
Битрейт : 448 Кбит/сек
Каналы : 6 каналов
Channel layout : L R C LFE Ls Rs
Частота : 48,0 КГц
Частота кадров : 31,250 кадров/сек (1536 SPF)
Метод сжатия : С потерями
Размер потока : 344 Мбайт (3%)
Заголовок : Jaskier
Язык : Russian
Service kind : Complete Main
Default : Да
Forced : Нет

Аудио #2
Идентификатор : 3
Формат : E-AC-3
Формат/Информация : Enhanced AC-3
Коммерческое название : Dolby Digital Plus
Идентификатор кодека : A_EAC3
Продолжительность : 1 ч. 47 м.
Вид битрейта : Постоянный
Битрейт : 640 Кбит/сек
Каналы : 6 каналов
Channel layout : L R C LFE Ls Rs
Частота : 48,0 КГц
Частота кадров : 31,250 кадров/сек (1536 SPF)
Метод сжатия : С потерями
Размер потока : 492 Мбайт (4%)
Язык : English
Service kind : Complete Main
Default : Нет
Forced : Нет

Текст #1
Идентификатор : 4
Формат : UTF-8
Идентификатор кодека : S_TEXT/UTF8
Идентификатор кодека/Информация : UTF-8 Plain Text
Продолжительность : 1 ч. 46 м.
Битрейт : 41 бит/сек
Count of elements : 1439
Размер потока : 32,0 Кбайт (0%)
Язык : English
Default : Нет
Forced : Нет

Текст #2
Идентификатор : 5
Формат : UTF-8
Идентификатор кодека : S_TEXT/UTF8
Идентификатор кодека/Информация : UTF-8 Plain Text
Продолжительность : 1 ч. 46 м.
Битрейт : 45 бит/сек
Count of elements : 1473
Размер потока : 35,8 Кбайт (0%)
Заголовок : SDH
Язык : English
Default : Нет
Forced : Нет




Скачать Обитель зла: Раккун-Сити через торрент https://st-kp-yandex-net.translate.goog/images/film_iphone/iphone360_1045397.jpg Скачать, смотреть онлайн Обитель зла: Раккун-Сити бесплантно в хорошем качестве Описание: Раккун-Сити, где когда-то располагался фармацевтический гигант Umbrella и вовсю бурлила жизнь, превратился в город-призрак. ... 9.4 10 15
Info! Золотая раздача, скачанное не засчитывается.
Торрент: Зарегистрирован [2021-12-23 19:33] · скачан: 646 раз
Статус: √ проверено
Размер: 11.76 GB
Как cкачать? Как скачать Обитель зла: Раккун-Сити через торрент | UTorrent

% Раздел Тема Автор DL S | L
Фильмы 2021 [DVDrip, WEB-DLRip, HDrip] (DUB, MVO) [ 1.42 GB ] Обитель зла: Раккун-Сити / Resident Evil: Welcome to Raccoon City | Дубляж - | BDRip Twi7ter Скачать
15 | 1
Фильмы [HD 720p, 1080p] (Хороший звук DUB, MVO) [ 10.96 GB ] Обитель зла: Раккун-Сити / Resident Evil: Welcome to Raccoon City | DUB | 1080p bober100 Скачать
2 | 1
Ultra HD (UHD: 2K, 4K, 8K) [ 47.44 GB ] Обитель зла: Раккун-Сити / Resident Evil: Welcome to Raccoon City | DUB | 2160p, (Dolby Vision bober100 Скачать
1 | 0
Фильмы [HD 720p, 1080p] (Хороший звук DUB, MVO) [ 4.88 GB ] Обитель зла: Раккун-Сити / Resident Evil: Welcome to Raccoon City | DUB | 720p bober100 Скачать
3 | 0
Фильмы 2021 [DVDrip, WEB-DLRip, HDrip] (DUB, MVO) [ 746 MB ] Обитель зла: Раккун-Сити / Resident Evil: Welcome to Raccoon City | DUB | BDRip bober100 Скачать
1 | 0
Фильмы 2021 [DVDrip, WEB-DLRip, HDrip] (DUB, MVO) [ 1.41 GB ] Обитель зла: Раккун-Сити / Resident Evil: Welcome to Raccoon City | DUB | BDRip bober100 Скачать
2 | 0
Фильмы (Blu-ray, BD-Remux, HDDVD) [ 23.8 GB ] Обитель зла: Раккун-Сити / Resident Evil: Welcome to Raccoon City | DUB | BD Remux 1080p bober100 Скачать
1 | 0

28-11-2019 20:33  


Отключить вcю реклaмy на сайте, в т.ч. и в плеере онлайн просмотра!

02-01-2022 10:55 Обитель зла: Раккун-Сити Скачать торрент  

посмотреть и забыть...



07-01-2022 16:17 Обитель зла: Раккун-Сити Скачать торрент  

VTPRV писал(а):

посмотреть и забыть...

Не смотреть и забыть! Жаль потраченного времени)) Это откровенное г...о



11-01-2022 06:17 Обитель зла: Раккун-Сити Скачать торрент  

Качаю и боюсь смотреть )
вот это я понимаю современные ужасы - еще не посмотрел, а уже стремно )))



31-01-2022 07:35 Обитель зла: Раккун-Сити Скачать торрент  

TRIAGRUTRIKA5 писал(а):

Качаю и боюсь смотреть )
вот это я понимаю современные ужасы - еще не посмотрел, а уже стремно )))

Полностью поддерживаю.



    Дорогой пользователь! Огромная просьба, поблагодарите релизера, оцените раздачу и оставьте свои комментарий, если Вы скачали Обитель зла: Раккун-Сити через торрент бесплатно!!
    Комментировать посты могут только пользователи прошедшие не сложную регистрацию
    Показать сообщения:    


    Обитель зла: Раккун-Сити через торрент
    Скачать бесплатно Обитель зла: Раккун-Сити
    Обитель зла: Раккун-Сити скачать торрент
    Обитель зла: Раккун-Сити смотреть онлайн
    Cкачать фильм Обитель зла: Раккун-Сити бесплатно
    Обитель зла: Раккун-Сити скачать торрент в хорошем качестве
    Обитель зла: Раккун-Сити смотреть онлайн бесплатно в хорошем качестве
    Вы не можете начинать темы
    Вы не можете отвечать на сообщения
    Вы не можете редактировать свои сообщения
    Вы не можете удалять свои сообщения
    Вы не можете голосовать в опросах
    Вы не можете прикреплять файлы к сообщениям
    Вы можете скачивать файлы
    Обитель зла: Раккун-Сити / Resident Evil: Welcome to Raccoon City [2021, Ужасы, фантастика, боевик, UHD WEB-DL 2160p] MVO [Jaskier] смотреть онлайн, скачать торрент picoco.icu