Всегда рабочее зеркало просто перед .vidak.icu напиши любое слово или цифру, Пример http://bfy.vidak.icu

>

7.4

iTunes

7.4

2 сезон

9.4

1 сезон

1

7.4

2 сезон

7.2

iTunes

6.0

MVO

13

6.1

iTunes

8.3

Пиратка

30

ULTIMATE

pack

9.9

Лицензия

ВАЖНО

ИГРА 18+

pack

7.3

RePack

MK11

7.7

RePack

jed

7.8

RePack

fifa19

8.5

RePack

RDR2

RePack

NEED FOR SPEED™ PAYBACK

1 сезон

9 сезон

Бесстыжие 9 сезон

Все сериалы

все сериалы на PB.wtf

RePack

FAR CRY 5

Anonymous, добрый вечер, мы катастрофически не успеваем собрать деньги на оплату серверов, помогите нам пожалуйста 5,10,15р., для нас важна любая помощь . В качестве благодарности мы отключим Вам всю рекламу на сайте (укажите свой ник в строку Ваше имя)!

×
  
Magnet ссылка

Сёстры / Сезон: 1 / Серии: 1-6 из 20 (Илья Силаев) [2021, Комедия, мелодрама, WEBRip] piratbit.org

Сёстры через торрент piratbit.org

Раздают: 8 [ 1 MB/s ] Качают: 53 [ 708 KB/s ]
Размер: 1.86 GB | Добавлен: 6 д. назад | Торрент скачан:37 раз
Смотреть онлайн Сёстры | Скачать    Ребята, помогите собрать деньги на оплату серверов!!!

23-12-2021 21:53 Сёстры Скачать торрент  

Сёстры
Год выпуска: 2021
Страна: Россия
Выпущено: START Studio
Жанр: Комедия, мелодрама
Продолжительность: ~ 00:25:00
Субтитры: отсутствуют

Режиссер: Илья Силаев



В ролях: Лина Миримская, Анна Котова, Ангелина Стречина, Антон Филипенко, Николай Шрайбер, Янина Студилина, Александр Обласов, Артём Ткаченко, Александра Киселёва (II), Дмитрий Тополь, Екатерина Шмакова, Виктор Конухин, Тимур Боканча, Вадим Ракитин, Александр Штендлер, Андрей Мартынов (IV), Маша Лобанова, Георгий Дронов, Анна Шепелева, Дария Гомес, Моряна Анттонен-Шестакова

Описание: История трех женщин, которые вместе вынуждены управлять автосервисом, доставшимся им в наследство после смерти отца. Когда-то он своим поведением разделил дочерей и сделал их чужими людьми. Теперь его провинциальный автобизнес должен сплотить поссорившихся сестер. Ольге, Маше и Ирине предстоит руководить коллективом из сорока мужчин, попутно разрешая накопившиеся за годы противоречия. Усложняет задачу то, что сестры максимально непохожи друг на друга: Ирина — московская бизнес-леди, selfmade woman; Ольга — непрактичная учительница из Ртищево, воздушная и не от мира сего; Маша — парикмахер из Саратова, мечтающая заработать много денег, но вынужденная жить с мужем-алкоголиком.

Качество: WEBRip
Формат: AVI

Видео: 720x304 (2.37:1), 25 fps, XviD ~1650 kbps avg, 0.302 bit/pixel
Аудио: 48.0 kHz, AC3 Dolby Digital, 2/0 (L,R) ch, ~ 192 kbps
скриншот  скриншот  скриншот  скриншот  скриншот  

General
Complete name : D:\Sestry.2021.WEB-DLRip.25Kuzmich\Sestry.E01-02.WEB-DLRip.25Kuzmich.avi
Format : AVI
Format/Info : Audio Video Interleave
File size : 574 MiB
Duration : 43 min 21 s
Overall bit rate : 1 852 kb/s
Writing application : VirtualDubMod 1.5.10.3 | www.virtualdub-fr.org || (build 2550/release)
Writing library : VirtualDubMod build 2550/release

Video
ID : 0
Format : MPEG-4 Visual
Format profile : Advanced Simple@L5
Format settings : BVOP1
Format settings, BVOP : 1
Format settings, QPel : No
Format settings, GMC : No warppoints
Format settings, Matrix : Default (MPEG)
Codec ID : XVID
Codec ID/Hint : XviD
Duration : 43 min 21 s
Bit rate : 1 650 kb/s
Width : 720 pixels
Height : 304 pixels
Display aspect ratio : 2.35:1
Frame rate : 25.000 FPS
Color space : YUV
Chroma subsampling : 4:2:0
Bit depth : 8 bits
Scan type : Progressive
Compression mode : Lossy
Bits/(Pixel*Frame) : 0.301
Stream size : 512 MiB (89%)
Writing library : XviD 73

Audio
ID : 1
Format : AC-3
Format/Info : Audio Coding 3
Codec ID : 2000
Duration : 43 min 21 s
Bit rate mode : Constant
Bit rate : 192 kb/s
Channel(s) : 2 channels
Channel positions : Front: L R
Sampling rate : 48.0 kHz
Frame rate : 31.250 FPS (1536 SPF)
Bit depth : 16 bits
Compression mode : Lossy
Stream size : 59.5 MiB (10%)
Alignment : Split accross interleaves
Interleave, duration : 40 ms (1.00 video frame)
Interleave, preload duratio : 500 ms
Service kind : Complete Main

Когда раздача ведётся путём добавления новых серий, при каждом добавлении создётся новый торрент. Чтобы начать докачку новой серии, пользователям необходимо сделать следующее:
(1) остановить скачивание,
(2) удалить старый торрент у себя из клиента (старые серии удалять не надо),
(3) скачать новый торрент и запустить его у себя в клиенте вместо старого, при этом указать клиенту путь в старую папку, куда и должно происходить скачивание новых серий.
Ваш клиент при этом должен произвести хеширование (проверку) старой папки (если не производит сам - помогите ему сделать это), и будет докачивать только те серии, которых у вас ещё нет. Старые серии при этом не удаляются, а продолжают раздаваться!
Eсли вы уже удалили старые серии, то предотвратить повторную закачку старых серий можно, отжав галочку в соответсвующих местах при запуске нового торрента. По возможности, желательно не удалять старые серии как можно дольше, чтобы релизёр не столько продолжал раздавать старые серии, а смог сконцентрироваться на новых.

piratbit.org



Скачать Сёстры через торрент https://i116.fastpic.org/big/2021/1224/78/f07402e34bcec4b6599bafd057b52678.jpeg Скачать, смотреть онлайн Сёстры бесплантно в хорошем качестве Описание: История трех женщин, которые вместе вынуждены управлять автосервисом, доставшимся им в наследство после смерти отца. Когда-то он ... 9.1 10 10
Торрент: Зарегистрирован [2022-01-14 05:00] · скачан: 37 раз
Статус: √ проверено
Размер: 1.86 GB
Как cкачать? Как скачать Сёстры через торрент | UTorrent

% Раздел Тема Автор DL S | L
Наши сериалы [ 1.78 GB ] Сёстры / Сезон: 1 / Серии: 1-6 из 20 [2021 WEBRip-AVC] bober100 Скачать
5 | 2
Наши сериалы [ 6.57 GB ] Сёстры / Сезон: 1 / Серии: 1-6 из 20 [2021 WEBRip 1080p] bober100 Скачать
9 | 6

28-11-2019 20:33  

Отключить всю рекламу на сайте

    Дорогой пользователь! Огромная просьба, поблагодарите релизера, оцените раздачу и оставьте свои комментарий, если Вы скачали Сёстры через торрент бесплатно!
    Комментировать посты могут только пользователи прошедшие не сложную регистрацию
    Показать сообщения:    

    Сёстры через торрент
    Скачать бесплатно Сёстры
    Сёстры скачать торрент
    Сёстры смотреть онлайн
    Cкачать фильм Сёстры бесплатно
    Сёстры скачать торрент в хорошем качестве
    Сёстры смотреть онлайн бесплатно в хорошем качестве


    Вы не можете начинать темы
    Вы не можете отвечать на сообщения
    Вы не можете редактировать свои сообщения
    Вы не можете удалять свои сообщения
    Вы не можете голосовать в опросах
    Вы не можете прикреплять файлы к сообщениям
    Вы можете скачивать файлы