Всегда рабочее зеркало без VPN и Proxy просто перед .vidak.icu напиши любое слово или цифру, Пример http://02a.vidak.icu

>

7.4

iTunes

7.4

2 сезон

6.6

iTunes

1

6.9

1 сезон

7.2

iTunes

6.0

MVO

13

6.1

iTunes

8.3

Пиратка

30

ULTIMATE

pack

9.9

Лицензия

ВАЖНО

ИГРА 18+

pack

7.3

RePack

MK11

7.7

RePack

jed

7.8

RePack

fifa19

8.5

RePack

RDR2

RePack

NEED FOR SPEED™ PAYBACK

1 сезон

9 сезон

Бесстыжие 9 сезон

Все сериалы

все сериалы на PB.wtf

RePack

FAR CRY 5

Anonymous, добрый вечер, мы катастрофически не успеваем собрать деньги на оплату серверов, помогите нам пожалуйста 5,10,15р., для нас важна любая помощь . В качестве благодарности мы отключим Вам всю рекламу на сайте (укажите свой ник в строку Ваше имя)!

×
  
Magnet ссылка

Звериные бои / Daisy Quokka: World's Scariest Animal (Рикард Куссо) [2020, Мультфильм, WEB-DL 1080p] DUB [Кинопоиск HD] piratbit.org

Звериные бои через торрент piratbit.org

Раздают: 3 [ 37 KB/s ]
Размер: 4.25 GB | Добавлен: 1 мес. назад | Торрент скачан:78 раз
Смотреть онлайн Звериные бои | Скачать    Ребята, помогите собрать деньги на оплату серверов!!!

28-12-2021 16:44 Звериные бои Скачать торрент  

Звериные бои
Daisy Quokka: World's Scariest Animal

Год выпуска: 2020
Страна: Австралия, США
Выпущено: Like A Photon Creative, Odin's Eye Animation, Particular Crowd, Screen Australia
Жанр: Мультфильм
Продолжительность: 01:28:19
Перевод: Дублированный | Кинопоиск HD
Субтитры: отсутствуют

Режиссер: Рикард Куссо

rating

В ролях: Энгаури Райс, Сэм Нил, Шарни Тонс, Грант Деньер, Люси Дарак, Фрэнк Вудли, Эндрю Кук, Рикард Куссо, Карл Стефанович, Элисон Лэнгдон

Описание: Невероятно очаровательная и оптимистичная квокка Дейзи идет навстречу своей несбыточной мечте — выиграть в звериных боях.

Качество: WEB-DL 1080p
Формат: MKV

Видео: MPEG-4 AVC, 6000 Kb/s, 1920x1036, 24.000 fps
Аудио #01: 48 kHz, AC3, 5.1, 448 Kbps | Дублированный | Кинопоиск HD | RUS |
Аудио #02: 48 kHz, Е-AC3, 5.1, 448 Kbps | Дублированный | Кинопоиск HD | RUS |
скриншот  скриншот  скриншот  скриншот  

Complete name : Zverinyie.boi.2020.KP.WEB-DL.1080p.ELEKTRI4KA.UNIONGANG.mkv
Format : Matroska
Format version : Version 4
File size : 4.25 GiB
Duration : 1 h 28 min
Overall bit rate : 6 882 kb/s
Movie name : Zverinyie.boi.2020.KP.WEB-DL.1080p.ELEKTRI4KA.UNIONGANG.
Encoded date : UTC 2021-12-25 23:07:06
Writing application : mkvmerge v8.3.0 ('Over the Horizon') 32bit
Writing library : libebml v1.3.1 + libmatroska v1.4.2

Video
ID : 1
Format : AVC
Format/Info : Advanced Video Codec
Format profile : High@L4
Format settings : CABAC / 4 Ref Frames
Format settings, CABAC : Yes
Format settings, Reference frames : 4 frames
Codec ID : V_MPEG4/ISO/AVC
Duration : 1 h 28 min
Bit rate : 6 000 kb/s
Width : 1 920 pixels
Height : 1 036 pixels
Display aspect ratio : 1.85:1
Frame rate mode : Constant
Frame rate : 24.000 FPS
Color space : YUV
Chroma subsampling : 4:2:0
Bit depth : 8 bits
Scan type : Progressive
Bits/(Pixel*Frame) : 0.126
Stream size : 3.69 GiB (87%)
Writing library : x264 core 157
Encoding settings : cabac=1 / ref=4 / deblock=1:0:0 / analyse=0x3:0x133 / me=umh / subme=10 / psy=1 / psy_rd=1.00:0.00 / mixed_ref=1 / me_range=24 / chroma_me=1 / trellis=2 / 8x8dct=1 / cqm=0 / deadzone=21,11 / fast_pskip=1 / chroma_qp_offset=-2 / threads=32 / lookahead_threads=5 / sliced_threads=0 / nr=0 / decimate=1 / interlaced=0 / bluray_compat=0 / constrained_intra=0 / bframes=8 / b_pyramid=2 / b_adapt=2 / b_bias=0 / direct=3 / weightb=1 / open_gop=0 / weightp=2 / keyint=192 / keyint_min=96 / scenecut=40 / intra_refresh=0 / rc_lookahead=60 / rc=2pass / mbtree=1 / bitrate=6000 / ratetol=1.0 / qcomp=0.60 / qpmin=0 / qpmax=69 / qpstep=4 / cplxblur=20.0 / qblur=0.5 / vbv_maxrate=6600 / vbv_bufsize=9000 / nal_hrd=none / filler=0 / ip_ratio=1.40 / aq=1:1.00
Default : Yes
Forced : No

Audio #1
ID : 2
Format : AC-3
Format/Info : Audio Coding 3
Commercial name : Dolby Digital
Codec ID : A_AC3
Duration : 1 h 28 min
Bit rate mode : Constant
Bit rate : 448 kb/s
Channel(s) : 6 channels
Channel layout : L R C LFE Ls Rs
Sampling rate : 48.0 kHz
Frame rate : 31.250 FPS (1536 SPF)
Compression mode : Lossy
Stream size : 283 MiB (7%)
Title : DUB AC3 (KinoPoisk HD)
Language : Russian
Service kind : Complete Main
Default : Yes
Forced : Yes

Audio #2
ID : 3
Format : E-AC-3
Format/Info : Enhanced AC-3
Commercial name : Dolby Digital Plus
Codec ID : A_EAC3
Duration : 1 h 28 min
Bit rate mode : Constant
Bit rate : 448 kb/s
Channel(s) : 6 channels
Channel layout : L R C LFE Ls Rs
Sampling rate : 48.0 kHz
Frame rate : 31.250 FPS (1536 SPF)
Compression mode : Lossy
Stream size : 283 MiB (7%)
Title : DUB E-AC3 (KinoPoisk HD)
Language : Russian
Service kind : Complete Main
Default : No
Forced : No

piratbit.org



Скачать Звериные бои через торрент https://i6.imageban.ru/out/2021/12/26/c76ac9bad145b874a5611982ed92d31a.png Скачать, смотреть онлайн Звериные бои бесплантно в хорошем качестве Описание: Невероятно очаровательная и оптимистичная квокка Дейзи идет навстречу своей несбыточной мечте — выиграть в звериных ... 10 10 6
Торрент: Зарегистрирован [2021-12-28 16:44] · скачан: 78 раз
Статус: √ проверено
Размер: 4.25 GB
Как cкачать? Как скачать Звериные бои через торрент | UTorrent

28-11-2019 20:33  

Отключить всю рекламу на сайте

    Дорогой пользователь! Огромная просьба, поблагодарите релизера, оцените раздачу и оставьте свои комментарий, если Вы скачали Звериные бои через торрент бесплатно!
    Комментировать посты могут только пользователи прошедшие не сложную регистрацию
    Показать сообщения:    

    Звериные бои через торрент
    Скачать бесплатно Звериные бои
    Звериные бои скачать торрент
    Звериные бои смотреть онлайн
    Cкачать фильм Звериные бои бесплатно
    Звериные бои скачать торрент в хорошем качестве
    Звериные бои смотреть онлайн бесплатно в хорошем качестве


    Вы не можете начинать темы
    Вы не можете отвечать на сообщения
    Вы не можете редактировать свои сообщения
    Вы не можете удалять свои сообщения
    Вы не можете голосовать в опросах
    Вы не можете прикреплять файлы к сообщениям
    Вы можете скачивать файлы