Всегда рабочее зеркало без VPN и Proxy просто перед .vidak.icu напиши любое слово или цифру, Пример http://vun.vidak.icu

>

7.4

iTunes

7.4

2 сезон

6.6

iTunes

1

6.9

1 сезон

7.2

iTunes

6.0

MVO

13

6.1

iTunes

8.3

Пиратка

30

ULTIMATE

pack

9.9

Лицензия

ВАЖНО

ИГРА 18+

pack

7.3

RePack

MK11

7.7

RePack

jed

7.8

RePack

fifa19

8.5

RePack

RDR2

RePack

NEED FOR SPEED™ PAYBACK

1 сезон

9 сезон

Бесстыжие 9 сезон

Все сериалы

все сериалы на PB.wtf

RePack

FAR CRY 5

Anonymous, добрый вечер, мы катастрофически не успеваем собрать деньги на оплату серверов, помогите нам пожалуйста 5,10,15р., для нас важна любая помощь . В качестве благодарности мы отключим Вам всю рекламу на сайте (укажите свой ник в строку Ваше имя)!

×
  
Magnet ссылка

Энканто / Encanto (Джаред Буш, Байрон Ховард, Чариз Кастро Смит) [2021, Мультфильм, мюзикл, фэнтези, комедия, приключения, семейный, BDRip 1080p] DUB [iTunes] piratbit.org

Энканто через торрент piratbit.org

Раздают: 35 [ 36 MB/s ] Качают: 14 [ 15 MB/s ]
Размер: 9.49 GB | Добавлен: 15 ч. назад | Торрент скачан:42 раза
Смотреть онлайн Энканто | Скачать    Ребята, помогите собрать деньги на оплату серверов!!!

28-12-2021 20:01 Энканто Скачать торрент  

Энканто
Encanto
«В этой семье все уникальные... Кроме Мирабэль»
Год выпуска: 2021
Страна: США
Студия: Walt Disney Animation Studios, Walt Disney Pictures
Жанр: Мультфильм, мюзикл, фэнтези, комедия, приключения, семейный
Продолжительность: 01:42:07
Перевод: Дублированный | iTunes
Субтитры: Русские (Forced, full, SDH), английские

Режиссер: Джаред Буш, Байрон Ховард, Чариз Кастро Смит

rating

В ролях: Стефани Беатриз, Мария Сесилия Ботеро, Джон Легуизамо, Мауро Кастильо, Джессика Дарроу, Энджи Сепеда, Каролина Гайтан, Дайан Герреро, Уилмер Вальдеррама, Рензи Фелиз

Описание: Удивительная семья Мадригалов живет в спрятанном в горах Колумбии волшебном доме, расположенном в чудесном и очаровательном уголке под названием Энканто. Каждого ребёнка в семье Мадригалов магия этого места благословила уникальным даром - от суперсилы до способности исцелять. Увы, магия обошла стороной одну лишь юную Мирабель. Обнаружив, что магия Энканто находится в опасности, Мирабель решает, что именно она может быть последней надеждой на спасение своей особенной семьи.

Качество: BDRip 1080p
Формат: MKV

Видео: MPEG-4 AVC, 1920x1040, 12.3 Mbit/s, 23.976 fps
Аудио #01: 48 kHz, AC3, 5.1, 384 Kbps | iTunes | RUS |
Аудио #02: 48 kHz, AC3, 5.1, 640 Kbps | Оригинал | ENG |
скриншот  скриншот  скриншот  скриншот  скриншот  

General
Unique ID : 97908192212705895159431035014596650032 (0x49A86E923311A2ECB2F8817AAC45E430)
Complete name : D:VideoEncanto.2021.BDRip.1080p.seleZen.mkv
Format : Matroska
Format version : Version 4
File size : 9.49 GiB
Duration : 1 h 42 min
Overall bit rate : 13.2 Mb/s
Movie name : Encanto 2021 from seleZen
Encoded date : UTC 2022-01-27 22:09:15
Writing application : mkvmerge v59.0.0 ('Shining Star') 64-bit
Writing library : libebml v1.4.2 + libmatroska v1.6.4

Video
ID : 1
Format : AVC
Format/Info : Advanced Video Codec
Format profile : High@L4.1
Format settings : CABAC / 4 Ref Frames
Format settings, CABAC : Yes
Format settings, Reference : 4 frames
Codec ID : V_MPEG4/ISO/AVC
Duration : 1 h 42 min
Bit rate : 12.3 Mb/s
Width : 1 920 pixels
Height : 1 040 pixels
Display aspect ratio : 1.85:1
Frame rate mode : Constant
Frame rate : 23.976 (24000/1001) FPS
Color space : YUV
Chroma subsampling : 4:2:0
Bit depth : 8 bits
Scan type : Progressive
Bits/(Pixel*Frame) : 0.256
Stream size : 8.75 GiB (92%)
Title : playHD
Writing library : x264 core 164 r3075+55M t_mod ~ Encoded by luvBB: JigSaw & droops16
Encoding settings : cabac=1 / ref=4 / deblock=1:-3:-3 / analyse=0x3:0x133 / me=umh / subme=10 / psy=1 / fade_compensate=0.00 / psy_rd=1.00:0.00 / mixed_ref=1 / me_range=32 / chroma_me=1 / trellis=2 / 8x8dct=1 / cqm=0 / deadzone=21,11 / fast_pskip=0 / chroma_qp_offset=-2 / threads=12 / lookahead_threads=2 / sliced_threads=0 / nr=0 / decimate=0 / interlaced=0 / bluray_compat=0 / constrained_intra=0 / fgo=0 / bframes=9 / b_pyramid=2 / b_adapt=2 / b_bias=0 / direct=3 / weightb=1 / open_gop=0 / weightp=2 / keyint=250 / keyint_min=23 / scenecut=40 / intra_refresh=0 / rc=crf / mbtree=0 / crf=15.9000 / qcomp=0.60 / qpmin=0:0:0 / qpmax=69:69:69 / qpstep=4 / ip_ratio=1.30 / pb_ratio=1.20 / aq=3:0.90 / aq-sensitivity=10.00 / aq-factor=1.00:1.00:1.00 / aq2=0 / aq3=0 / zones=810,950,crf=14.4/2108,2792,crf=14.4/2866,3140,crf=14.4/3818,4014,crf=14.4
Language : English
Default : Yes
Forced : No

Audio #1
ID : 2
Format : AC-3
Format/Info : Audio Coding 3
Commercial name : Dolby Digital
Codec ID : A_AC3
Duration : 1 h 42 min
Bit rate mode : Constant
Bit rate : 384 kb/s
Channel(s) : 6 channels
Channel layout : L R C LFE Ls Rs
Sampling rate : 48.0 kHz
Frame rate : 31.250 FPS (1536 SPF)
Compression mode : Lossy
Stream size : 282 MiB (3%)
Title : iTunes
Language : Russian
Service kind : Complete Main
Default : Yes
Forced : Yes

Audio #2
ID : 3
Format : AC-3
Format/Info : Audio Coding 3
Commercial name : Dolby Digital
Codec ID : A_AC3
Duration : 1 h 42 min
Bit rate mode : Constant
Bit rate : 640 kb/s
Channel(s) : 6 channels
Channel layout : L R C LFE Ls Rs
Sampling rate : 48.0 kHz
Frame rate : 31.250 FPS (1536 SPF)
Compression mode : Lossy
Stream size : 467 MiB (5%)
Title : Original
Language : English
Service kind : Complete Main
Default : No
Forced : No

Text #1
ID : 4
Format : UTF-8
Codec ID : S_TEXT/UTF8
Codec ID/Info : UTF-8 Plain Text
Duration : 55 min 23 s
Bit rate : 0 b/s
Count of elements : 5
Stream size : 64.0 Bytes (0%)
Title : Forced
Language : Russian
Default : Yes
Forced : Yes

Text #2
ID : 5
Format : UTF-8
Codec ID : S_TEXT/UTF8
Codec ID/Info : UTF-8 Plain Text
Duration : 1 h 40 min
Bit rate : 89 b/s
Count of elements : 1223
Stream size : 66.1 KiB (0%)
Title : Full
Language : Russian
Default : No
Forced : No

Text #3
ID : 6
Format : UTF-8
Codec ID : S_TEXT/UTF8
Codec ID/Info : UTF-8 Plain Text
Duration : 1 h 36 min
Bit rate : 102 b/s
Count of elements : 1655
Stream size : 72.5 KiB (0%)
Title : SDH
Language : Russian
Default : No
Forced : No

Text #4
ID : 7
Format : UTF-8
Codec ID : S_TEXT/UTF8
Codec ID/Info : UTF-8 Plain Text
Duration : 1 h 36 min
Bit rate : 61 b/s
Count of elements : 1598
Stream size : 43.2 KiB (0%)
Title : Full
Language : English
Default : No
Forced : No

Text #5
ID : 8
Format : UTF-8
Codec ID : S_TEXT/UTF8
Codec ID/Info : UTF-8 Plain Text
Duration : 1 h 36 min
Bit rate : 71 b/s
Count of elements : 1837
Stream size : 50.3 KiB (0%)
Title : SDH
Language : English
Default : No
Forced : No

Menu
00:00:00.000 : :Chapter 01
00:03:57.654 : :Chapter 02
00:09:49.297 : :Chapter 03
00:15:07.573 : :Chapter 04
00:16:54.889 : :Chapter 05
00:21:48.807 : :Chapter 06
00:24:54.910 : :Chapter 07
00:28:58.612 : :Chapter 08
00:31:10.619 : :Chapter 09
00:38:35.104 : :Chapter 10
00:44:57.820 : :Chapter 11
00:53:39.967 : :Chapter 12
01:01:22.345 : :Chapter 13
01:06:28.067 : :Chapter 14
01:11:41.255 : :Chapter 15
01:16:38.135 : :Chapter 16
01:24:25.394 : :Chapter 17
01:31:02.207 : :Chapter 18

piratbit.org



Скачать Энканто через торрент https://i4.imageban.ru/out/2022/01/19/0ad4095c8996d6fa87909c561740961f.png Скачать, смотреть онлайн Энканто бесплантно в хорошем качестве Описание: Удивительная семья Мадригалов живет в спрятанном в горах Колумбии волшебном доме, расположенном в чудесном и очаровательном ... 9.4 10 16
Info! Золотая раздача, скачанное не засчитывается.
Торрент: Зарегистрирован [2022-01-28 00:16] · скачан: 42 раз
Статус: √ проверено
Размер: 9.49 GB
Как cкачать? Как скачать Энканто через торрент | UTorrent

% Раздел Тема Автор DL S | L
Иностранные мультфильмы [ 2.39 GB ] Энканто / Encanto [2021 Мультфильм мюзикл BDRip-AVC] bober100 Скачать
36 | 7
Иностранные мультфильмы [ 1.42 GB ] Энканто / Encanto [2021 Мультфильм мюзикл BDRip] bober100 Скачать
21 | 0
Иностранные мультфильмы [ 746 MB ] Энканто / Encanto [2021 Мультфильм мюзикл BDRip] bober100 Скачать
3 | 1
Ultra HD (UHD: 2K, 4K, 8K) [ 16.77 GB ] Энканто / Encanto [2021 Мультфильм мюзикл UHD WEB-DL-HEVC 2160p] bober100 Скачать
10 | 1
Зарубежные Мультфильмы (BDRip 1080p, 720p, Blu-ray, BD-Remux) [ 21.41 GB ] Энканто / Encanto [2021 Мультфильм мюзикл BD Remux 1080p] bober100 Скачать
10 | 4
Зарубежные Мультфильмы (BDRip 1080p, 720p, Blu-ray, BD-Remux) [ 5.1 GB ] Энканто / Encanto [2021 Мультфильм мюзикл BDRip 720p] bober100 Скачать
26 | 6

28-11-2019 20:33  

Отключить всю рекламу на сайте

    Дорогой пользователь! Огромная просьба, поблагодарите релизера, оцените раздачу и оставьте свои комментарий, если Вы скачали Энканто через торрент бесплатно!
    Комментировать посты могут только пользователи прошедшие не сложную регистрацию
    Показать сообщения:    

    Энканто через торрент
    Скачать бесплатно Энканто
    Энканто скачать торрент
    Энканто смотреть онлайн
    Cкачать фильм Энканто бесплатно
    Энканто скачать торрент в хорошем качестве
    Энканто смотреть онлайн бесплатно в хорошем качестве


    Вы не можете начинать темы
    Вы не можете отвечать на сообщения
    Вы не можете редактировать свои сообщения
    Вы не можете удалять свои сообщения
    Вы не можете голосовать в опросах
    Вы не можете прикреплять файлы к сообщениям
    Вы можете скачивать файлы