Всегда рабочее зеркало без VPN и Proxy просто перед .vidak.icu напиши любое слово или цифру, Пример http://ktz.vidak.icu

>

7.4

iTunes

7.4

2 сезон

6.6

iTunes

1

6.9

1 сезон

7.2

iTunes

6.0

MVO

13

6.1

iTunes

8.3

Пиратка

30

ULTIMATE

pack

9.9

Лицензия

ВАЖНО

ИГРА 18+

pack

7.3

RePack

MK11

7.7

RePack

jed

7.8

RePack

fifa19

8.5

RePack

RDR2

RePack

NEED FOR SPEED™ PAYBACK

1 сезон

9 сезон

Бесстыжие 9 сезон

Все сериалы

все сериалы на PB.wtf

RePack

FAR CRY 5

Anonymous, добрый вечер, мы катастрофически не успеваем собрать деньги на оплату серверов, помогите нам пожалуйста 5,10,15р., для нас важна любая помощь . В качестве благодарности мы отключим Вам всю рекламу на сайте (укажите свой ник в строку Ваше имя)!

×
  
Magnet ссылка

Гарри Поттер 20 лет спустя: Возвращение в Хогвартс / Harry Potter 20th Anniversary: Return to Hogwarts (Эрен Криви, Джо Перлман) [2022, Документальный, семейный, WEB-DL 720p] MVO [Amedia] piratbit.org

Гарри Поттер 20 лет спустя: Возвращение в Хогвартс через торрент piratbit.org

Раздают: 30 [ 147 KB/s ]
Размер: 3 GB | Добавлен: 27 д. назад | Торрент скачан:336 раз
Смотреть онлайн Гарри Поттер 20 лет спустя: Возвращение в Хогвартс | Скачать    Ребята, помогите собрать деньги на оплату серверов!!!

01-01-2022 13:45 Гарри Поттер 20 лет спустя: Возвращение в Хогвартс Скачать торрент  

Гарри Поттер 20 лет спустя: Возвращение в Хогвартс
Harry Potter 20th Anniversary: Return to Hogwarts

Год выпуска: 2022
Страна: США, Великобритания
Выпущено: Casey Patterson Entertainment, Pulse, Pulse Films, Warner Bros. Television, Warner Horizon Television, Warner Horizon Uned Television
Жанр: Документальный, семейный
Продолжительность: 01:42:56
Перевод: Профессиональный (многоголосый) | Amedia
Субтитры: Aнглийские

Режиссер: Эрен Криви, Джо Перлман

В ролях: Дэниэл Рэдклифф, Руперт Гринт, Эмма Уотсон, Джейсон Айзекс, Рэйф Файнс, Хелена Бонем Картер, Гари Олдман, Альфред Энок, Бонни Райт, Эванна Линч, Робби Колтрейн, Том Фелтон, Крис Коламбус, Мэттью Льюис, Имелда Стонтон

rating

Описание: Двадцать лет назад Гарри, Гермиона и Рон впервые сели на «Хогвартс-экспресс» и увлекли всех детей земного шара вслед за собой в мир магии. Эта история для тех, кто хоть раз мечтал примерить распределительную шляпу или улететь на «Нимбус-2000» подальше от земных неурядиц. Для всех преданных поклонников франшизы HBO Max и «Амедиатека» приготовили новую встречу с детством: Эмма Уотсон, Руперт Гринт, Дэниэл Рэдклифф, Хелена Бонем Картер, Гари Олдман и многие другие вместе с режиссером первых двух фильмов Крисом Коламбусом возвращаются на платформу 9¾, гостиную Гриффиндора и торжественный зал Хогвартса, чтобы обсудить сказку, которая изменила их жизнь.

Качество: WEB-DL 720p
Формат: MKV

Видео: MPEG-4 AVC, 3400 Кбит/с, 1280x720
Аудио #1: AC3, 6 ch, 384 Кбит/с | RUS |
Аудио #2: AC3, 6 ch, 384 Кбит/с | ENG |
скриншот  скриншот  скриншот  скриншот  скриншот  

Общее
Уникальный идентификатор : 217591617210106327282051785860244725576 (0xA3B29F01EF13ABA76CD4AB3228CE5F48)
Полное имя : E:TorrentsHarry.Potter.2022.720p_от New-Team.mkv
Формат : Matroska
Версия формата : Version 4
Размер файла : 3,00 Гбайт
Продолжительность : 1 ч. 42 м.
Режим общего битрейта : Переменный
Общий поток : 4 167 Кбит/сек
Название фильма : Harry.Potter.2022.720p_от New-Team
Дата кодирования : UTC 2022-01-01 12:46:03
Программа кодирования : mkvmerge v59.0.0 ('Shining Star') 64-bit
Библиотека кодирования : libebml v1.4.2 + libmatroska v1.6.4

Видео
Идентификатор : 1
Формат : AVC
Формат/Информация : Advanced Video Codec
Профиль формата : Main@L3.1
Настройки формата : CABAC / 4 Ref Frames
Параметр CABAC формата : Да
Параметр RefFrames формата : 4 кадра
Идентификатор кодека : V_MPEG4/ISO/AVC
Продолжительность : 1 ч. 42 м.
Вид битрейта : Переменный
Битрейт : 3 400 Кбит/сек
Максимальный битрейт : 5 100 Кбит/сек
Ширина : 1 280 пикселей
Высота : 720 пикселей
Соотношение сторон : 16:9
Режим частоты кадров : Постоянный
Частота кадров : 23,976 (24000/1001) кадра/сек
Цветовое пространство : YUV
Субдискретизация насыщенности : 4:2:0
Битовая глубина : 8 бит
Тип развёртки : Прогрессивная
Бит/(Пиксели*Кадры) : 0.154
Размер потока : 2,44 Гбайт (82%)
Библиотека кодирования : x264 core 157 r2965 861cec4
Настройки программы : cabac=1 / ref=4 / deblock=1:0:0 / analyse=0x1:0x111 / me=hex / subme=7 / psy=1 / psy_rd=1.00:0.00 / mixed_ref=1 / me_range=16 / chroma_me=1 / trellis=1 / 8x8dct=0 / cqm=0 / deadzone=21,11 / fast_pskip=1 / chroma_qp_offset=-2 / threads=22 / lookahead_threads=3 / sliced_threads=0 / nr=0 / decimate=1 / interlaced=0 / bluray_compat=0 / constrained_intra=0 / bframes=3 / b_pyramid=2 / b_adapt=1 / b_bias=0 / direct=1 / weightb=1 / open_gop=0 / weightp=2 / keyint=96 / keyint_min=96 / scenecut=40 / intra_refresh=0 / rc_lookahead=40 / rc=2pass / mbtree=1 / bitrate=3400 / ratetol=1.0 / qcomp=0.60 / qpmin=0 / qpmax=69 / qpstep=4 / cplxblur=20.0 / qblur=0.5 / vbv_maxrate=5100 / vbv_bufsize=2550 / nal_hrd=vbr / filler=0 / ip_ratio=1.40 / aq=1:1.00
Default : Да
Forced : Нет
Цветовой диапазон : Limited
Основные цвета : BT.709
Характеристики трансфера : BT.709
Коэффициенты матрицы : BT.709

Аудио #1
Идентификатор : 2
Формат : AC-3
Формат/Информация : Audio Coding 3
Коммерческое название : Dolby Digital
Идентификатор кодека : A_AC3
Продолжительность : 1 ч. 42 м.
Вид битрейта : Постоянный
Битрейт : 384 Кбит/сек
Каналы : 6 каналов
Channel layout : L R C LFE Ls Rs
Частота : 48,0 КГц
Частота кадров : 31,250 кадров/сек (1536 SPF)
Метод сжатия : С потерями
Размер потока : 283 Мбайт (9%)
Заголовок : [MVO] Amedia
Язык : Russian
Service kind : Complete Main
Default : Да
Forced : Нет

Аудио #2
Идентификатор : 3
Формат : AC-3
Формат/Информация : Audio Coding 3
Коммерческое название : Dolby Digital
Идентификатор кодека : A_AC3
Продолжительность : 1 ч. 42 м.
Вид битрейта : Постоянный
Битрейт : 384 Кбит/сек
Каналы : 6 каналов
Channel layout : L R C LFE Ls Rs
Частота : 48,0 КГц
Частота кадров : 31,250 кадров/сек (1536 SPF)
Метод сжатия : С потерями
Размер потока : 283 Мбайт (9%)
Язык : English
Service kind : Complete Main
Default : Нет
Forced : Нет

Текст
Идентификатор : 4
Формат : UTF-8
Идентификатор кодека : S_TEXT/UTF8
Идентификатор кодека/Информация : UTF-8 Plain Text
Продолжительность : 1 ч. 41 м.
Битрейт : 109 бит/сек
Count of elements : 2366
Размер потока : 82,0 Кбайт (0%)
Заголовок : English
Язык : English
Default : Нет
Forced : Нет

piratbit.org



Скачать Гарри Поттер 20 лет спустя: Возвращение в Хогвартс через торрент https://i116.fastpic.org/big/2022/0101/d9/529c9673589d55929f8932275393e2d9.jpg Скачать, смотреть онлайн Гарри Поттер 20 лет спустя: Возвращение в Хогвартс бесплантно в хорошем качестве Описание: Двадцать лет назад Гарри, Гермиона и Рон впервые сели на «Хогвартс-экспресс» и увлекли всех детей земного шара вслед за собой в ... 9 10 9
Торрент: Зарегистрирован [2022-01-01 13:45] · скачан: 336 раз
Статус: √ проверено
Размер: 3 GB
Как cкачать? Как скачать Гарри Поттер 20 лет спустя: Возвращение в Хогвартс через торрент | UTorrent

% Раздел Тема Автор DL S | L
Документальные фильмы и телепередачи [ 6.48 GB ] Гарри Поттер 20 лет спустя: Возвращение в Хогвартс / Harry Potter 20th Anniversary: Return to Hogwarts [2022 Документальный WEB-DL 1080p] MVO [Amedia] bober100 Скачать
32 | 0

28-11-2019 20:33  

Отключить всю рекламу на сайте

01-01-2022 18:13 Гарри Поттер 20 лет спустя: Возвращение в Хогвартс Скачать торрент  

херня документальнаяpiratbit.org



02-01-2022 04:25 Гарри Поттер 20 лет спустя: Возвращение в Хогвартс Скачать торрент  

Arron_H1De писал(а):

херня документальная

Бабло, бабло!piratbit.org



02-01-2022 08:13 Гарри Поттер 20 лет спустя: Возвращение в Хогвартс Скачать торрент  

а еще качели то возьмут писательницу то нетpiratbit.org



    Дорогой пользователь! Огромная просьба, поблагодарите релизера, оцените раздачу и оставьте свои комментарий, если Вы скачали Гарри Поттер 20 лет спустя: Возвращение в Хогвартс через торрент бесплатно!
    Комментировать посты могут только пользователи прошедшие не сложную регистрацию
    Показать сообщения:    

    Гарри Поттер 20 лет спустя: Возвращение в Хогвартс через торрент
    Скачать бесплатно Гарри Поттер 20 лет спустя: Возвращение в Хогвартс
    Гарри Поттер 20 лет спустя: Возвращение в Хогвартс скачать торрент
    Гарри Поттер 20 лет спустя: Возвращение в Хогвартс смотреть онлайн
    Cкачать фильм Гарри Поттер 20 лет спустя: Возвращение в Хогвартс бесплатно
    Гарри Поттер 20 лет спустя: Возвращение в Хогвартс скачать торрент в хорошем качестве
    Гарри Поттер 20 лет спустя: Возвращение в Хогвартс смотреть онлайн бесплатно в хорошем качестве


    Вы не можете начинать темы
    Вы не можете отвечать на сообщения
    Вы не можете редактировать свои сообщения
    Вы не можете удалять свои сообщения
    Вы не можете голосовать в опросах
    Вы не можете прикреплять файлы к сообщениям
    Вы можете скачивать файлы