Достать ножи: Стеклянная луковица

MVO

Добыча

Дубляж

Уэнсдэй

1 сезон

Тор

Дубляж

13 клиническая

1 сезон

Жестокая ночь

MVO

Одни из нас

1 сезон

Deluxe

pack

Рекомендуем

30

Пиратка

ВАЖНО

ВАЖНО

Ghostwire

Пиратка

jed

RePack

nioh2

RePack

RDR2

RePack

NEED FOR SPEED™ PAYBACK

RePack

скачать торрент

Кинопоиск HD

Острые козырьки 6 сезон

6 сезон

FAR CRY 6

RePack

скачать торрент

Лицензия

скачать торрент

MVO

1

1 сезон

скачать торрент

1 сезон

скачать торрент

Лицензия

  

Охотники за привидениями: Наследники / Ghostbusters: Afterlife (Джейсон Райтман) [2021, Фантастика, комедия, боевик, WEB-DL-HEVC 2160p, (SDR)] Дубляж [Google Play]

Охотники за привидениями: Наследники через торрент piratbit.org

Размер: 11.37 GB | Добавлен: 1 год 1 мес. назад | Торрент скачан:197 раз
Смотреть онлайн | Скачать | Поддержите нас   

04-01-2022 13:38 Охотники за привидениями: Наследники Скачать торрент  

Охотники за привидениями: Наследники
Ghostbusters: Afterlife

Год выпуска: 2021
Страна: США, Канада
Выпущено: Columbia Pictures, BRON Studios, Ghostcorps
Жанр: Фантастика, комедия, боевик
Продолжительность: 02:03:54
Перевод: Дублированный | Google Play
Субтитры: Русские (Forced, full), украинские (Forced, full), английские (Full, SDH)

Режиссер: Джейсон Райтман

rating

В ролях: Кэрри Кун, Пол Радд, Финн Вулфхард, Маккенна Грейс, Логан Ким, Селеста О’Коннор, Билл Мюррей, Дэн Эйкройд, Эрни Хадсон, Энни Поттс, Сигурни Уивер, Боб Гантон, Дж.К. Симмонс, Шон Сьюард, Билли Брайк

Описание: Мать-одиночка с двумя детьми-подростками селится на старой ферме в Оклахоме, полученной в наследство от отца, которого она не знала. Дети пытаются больше узнать о своем деде и находят автомобиль Ecto-1, принадлежавший знаменитым охотникам за привидениями.

Качество: WEB-DL-HEVC 2160p
Формат: MKV

Видео: MPEG-H HEVC SDR, 3840x1592 (2,40:1), 23.976 fps, 12 Mb/s, 10 bit
Аудио #1: AC3, 48.0 kHz, 6 ch, 384 kb/s | RUS |
Аудио #2: E-AC3 JOC, 48.0 kHz, 6 ch, 768 kb/s | ENG |
скриншот  скриншот  скриншот  скриншот  скриншот  

Общее
Уникальный идентификатор : 249621728532227811681784118528511530625 (0xBBCB656BB969C9808F579AA6229F5681)
Полное имя : Ghostbusters.Afterlife.2021.WEB-DL.2160p.SDR.mkv
Формат : Matroska
Версия формата : Version 4 / Version 2
Размер файла : 11,4 Гбайт
Продолжительность : 2 ч. 3 м.
Общий поток : 13,1 Мбит/сек
Дата кодирования : UTC 2022-01-04 13:09:29
Программа кодирования : mkvmerge v8.3.0 ('Over the Horizon') 64bit
Библиотека кодирования : libebml v1.3.1 + libmatroska v1.4.2

Видео
Идентификатор : 1
Формат : HEVC
Формат/Информация : High Efficiency Video Coding
Профиль формата : Main 10@L5@High
Идентификатор кодека : V_MPEGH/ISO/HEVC
Продолжительность : 2 ч. 3 м.
Битрейт : 12,0 Мбит/сек
Ширина : 3 840 пикселей
Высота : 1 592 пикселя
Соотношение сторон : 2,40:1
Режим частоты кадров : Постоянный
Частота кадров : 23,976 кадра/сек
Цветовое пространство : YUV
Субдискретизация насыщенности : 4:2:0
Битовая глубина : 10 бит
Бит/(Пиксели*Кадры) : 0.082
Размер потока : 10,4 Гбайт (91%)
Default : Да
Forced : Нет
Цветовой диапазон : Limited
Основные цвета : BT.709
Характеристики трансфера : BT.709
Коэффициенты матрицы : BT.709

Аудио #1
Идентификатор : 2
Формат : AC-3
Формат/Информация : Audio Coding 3
Коммерческое название : Dolby Digital
Идентификатор кодека : A_AC3
Продолжительность : 2 ч. 3 м.
Вид битрейта : Постоянный
Битрейт : 384 Кбит/сек
Каналы : 6 каналов
Channel layout : L R C LFE Ls Rs
Частота : 48,0 КГц
Частота кадров : 31,250 кадров/сек (1536 SPF)
Метод сжатия : С потерями
Размер потока : 340 Мбайт (3%)
Заголовок : Дубляж
Язык : Russian
Service kind : Complete Main
Default : Да
Forced : Нет

Аудио #2
Идентификатор : 3
Формат : E-AC-3 JOC
Формат/Информация : Enhanced AC-3 with Joint Object Coding
Коммерческое название : Dolby Digital Plus with Dolby Atmos
Идентификатор кодека : A_EAC3
Продолжительность : 2 ч. 3 м.
Вид битрейта : Постоянный
Битрейт : 768 Кбит/сек
Каналы : 6 каналов
Channel layout : L R C LFE Ls Rs
Частота : 48,0 КГц
Частота кадров : 31,250 кадров/сек (1536 SPF)
Метод сжатия : С потерями
Размер потока : 681 Мбайт (6%)
Заголовок : Original
Язык : English
Service kind : Complete Main
Default : Нет
Forced : Нет
Complexity index : 16
Number of dynamic objects : 15
Bed channel count : 1 канал
Bed channel configuration : LFE

Текст #1
Идентификатор : 4
Формат : UTF-8
Идентификатор кодека : S_TEXT/UTF8
Идентификатор кодека/Информация : UTF-8 Plain Text
Продолжительность : 2 ч. 2 м.
Битрейт : 1 бит/сек
Count of elements : 32
Размер потока : 1,14 Кбайт (0%)
Заголовок : Forced
Язык : Russian
Default : Да
Forced : Нет

Текст #2
Идентификатор : 5
Формат : UTF-8
Идентификатор кодека : S_TEXT/UTF8
Идентификатор кодека/Информация : UTF-8 Plain Text
Продолжительность : 2 ч. 2 м.
Битрейт : 63 бит/сек
Count of elements : 1209
Размер потока : 57,4 Кбайт (0%)
Заголовок : Full
Язык : Russian
Default : Нет
Forced : Нет

Текст #3
Идентификатор : 6
Формат : UTF-8
Идентификатор кодека : S_TEXT/UTF8
Идентификатор кодека/Информация : UTF-8 Plain Text
Продолжительность : 2 ч. 2 м.
Битрейт : 1 бит/сек
Count of elements : 27
Размер потока : 1,05 Кбайт (0%)
Заголовок : Forced
Язык : Ukrainian
Default : Нет
Forced : Нет

Текст #4
Идентификатор : 7
Формат : UTF-8
Идентификатор кодека : S_TEXT/UTF8
Идентификатор кодека/Информация : UTF-8 Plain Text
Продолжительность : 2 ч. 2 м.
Битрейт : 63 бит/сек
Count of elements : 1217
Размер потока : 56,6 Кбайт (0%)
Заголовок : Full
Язык : Ukrainian
Default : Нет
Forced : Нет

Текст #5
Идентификатор : 8
Формат : UTF-8
Идентификатор кодека : S_TEXT/UTF8
Идентификатор кодека/Информация : UTF-8 Plain Text
Продолжительность : 1 ч. 58 м.
Битрейт : 39 бит/сек
Count of elements : 1186
Размер потока : 34,2 Кбайт (0%)
Заголовок : Full
Язык : English
Default : Нет
Forced : Нет

Текст #6
Идентификатор : 9
Формат : UTF-8
Идентификатор кодека : S_TEXT/UTF8
Идентификатор кодека/Информация : UTF-8 Plain Text
Продолжительность : 1 ч. 58 м.
Битрейт : 39 бит/сек
Count of elements : 1186
Размер потока : 34,2 Кбайт (0%)
Заголовок : SDH
Язык : English
Default : Нет
Forced : Нет




Скачать Охотники за привидениями: Наследники через торрент https://i116.fastpic.org/big/2022/0104/ba/122380e2978317b6de0dda9cbb176fba.jpg Скачать, смотреть онлайн Охотники за привидениями: Наследники бесплантно в хорошем качестве Описание: Мать-одиночка с двумя детьми-подростками селится на старой ферме в Оклахоме, полученной в наследство от отца, которого она не ... 9.5 10 11
Торрент: Зарегистрирован [2022-01-04 13:38] · скачан: 197 раз
Статус: √ проверено
Размер: 11.37 GB
Как cкачать? Как скачать Охотники за привидениями: Наследники через торрент | UTorrent

28-11-2019 20:33  


Отключить вcю реклaмy на сайте, в т.ч. и в плеере онлайн просмотра!

    Дорогой пользователь! Огромная просьба, поблагодарите релизера, оцените раздачу и оставьте свои комментарий, если Вы скачали Охотники за привидениями: Наследники через торрент бесплатно!!
    Комментировать посты могут только пользователи прошедшие не сложную регистрацию
    Показать сообщения:    


    Охотники за привидениями: Наследники через торрент
    Скачать бесплатно Охотники за привидениями: Наследники
    Охотники за привидениями: Наследники скачать торрент
    Охотники за привидениями: Наследники смотреть онлайн
    Cкачать фильм Охотники за привидениями: Наследники бесплатно
    Охотники за привидениями: Наследники скачать торрент в хорошем качестве
    Охотники за привидениями: Наследники смотреть онлайн бесплатно в хорошем качестве
    Вы не можете начинать темы
    Вы не можете отвечать на сообщения
    Вы не можете редактировать свои сообщения
    Вы не можете удалять свои сообщения
    Вы не можете голосовать в опросах
    Вы не можете прикреплять файлы к сообщениям
    Вы можете скачивать файлы
    Охотники за привидениями: Наследники / Ghostbusters: Afterlife [2021, Фантастика, комедия, боевик, WEB-DL-HEVC 2160p, ] Дубляж [Google Play] смотреть онлайн, скачать торрент picoco.icu