Всегда рабочее зеркало без VPN и Proxy просто перед .vidak.icu напиши любое слово или цифру, Пример http://0tx.vidak.icu

>

7.4

iTunes

7.4

2 сезон

6.6

iTunes

1

6.9

1 сезон

7.2

iTunes

6.0

MVO

13

6.1

iTunes

8.3

Пиратка

30

ULTIMATE

pack

9.9

Лицензия

ВАЖНО

ИГРА 18+

pack

7.3

RePack

MK11

7.7

RePack

jed

7.8

RePack

fifa19

8.5

RePack

RDR2

RePack

NEED FOR SPEED™ PAYBACK

1 сезон

9 сезон

Бесстыжие 9 сезон

Все сериалы

все сериалы на PB.wtf

RePack

FAR CRY 5

Anonymous, добрый вечер, мы катастрофически не успеваем собрать деньги на оплату серверов, помогите нам пожалуйста 5,10,15р., для нас важна любая помощь . В качестве благодарности мы отключим Вам всю рекламу на сайте (укажите свой ник в строку Ваше имя)!

×
  
Magnet ссылка

10 дней с Сантой / 10 giorni con Babbo Natale (Алессандро Дженовези)(AMAZON) [2020 г., комедия, семейный, WEB-DLRip, Профессиональный многоголосый закадровый "(КиноПоиск HD)"] piratbit.org

10 дней с Сантой через торрент piratbit.org

Раздают: 3 [ 0 KB/s ]
Размер: 712 MB | Добавлен: 23 д. назад | Торрент скачан:19 раз
Смотреть онлайн 10 дней с Сантой | Скачать    Ребята, помогите собрать деньги на оплату серверов!!!

04-01-2022 17:59 10 дней с Сантой Скачать торрент  

10 дней с Сантой / 10 giorni con Babbo Natale
Год выпуска: 2020
Страна: Италия / Colorado Film Production , Medusa Film S.p.a.
Жанр: комедия, семейный
Продолжительность: 01:40:05
Перевод: Профессиональный многоголосый закадровый ((КиноПоиск HD))
«А вы верите в чудеса?»

Режиссер: Алессандро Дженовези

rating

В ролях: Фабио Де Луиджи, Валентина Лодовини, Диего Абатантуоно, Анджелика Элли, Бьянка Усай, Маттео Кастелуччи, Беатрис Баричелла, Мелисса Бартолини, Анна Далтон, Марко Маттео Донат-Каттин

Описание: Карло, Джулия и трое их детей отправляются в Швецию на рождественские каникулы. По пути они случайно сбивают на машине странного человека, одетого как Санта-Клаус, и решают подвезти его до ближайшего города. Но у незнакомца свои планы на то, как провести это Рождество, и отделаться от него теперь не так-то просто.

Качество: WEB-DLRip
Формат: AVI
Видео кодек: DivX
Аудио кодек: MP3
Видео: 640x272 (2.35:1), 24.000 fps, DivX Codec 4.x ~856 kbps avg, 0.20 bit/pixel
Аудио: 48 kHz, MPEG Layer 3, 2 ch, ~128.00 kbps avg















Общее
Полное имя : G:\ФИЛЬМЫ\10 дней с Сантой.2020.WEB-DLRup.AMAZON.avi
Формат : AVI
Формат/Информация : Audio Video Interleave
Размер файла : 712 Мбайт
Продолжительность : 1 ч. 40 м.
Общий поток : 994 Кбит/сек
Программа кодирования : VirtualDubMod 1.5.10.3 | www.virtualdub-fr.org || (build 2550/release)
Библиотека кодирования : VirtualDubMod build 2550/release

Видео
Идентификатор : 0
Формат : MPEG-4 Visual
Профиль формата : Advanced Simple@L5
Настройки формата : BVOP2
Параметр BVOP формата : 2
Параметр QPel формата : Нет
Параметр GMC формата : Без точки перехода
Параметр матрицы формата : Default (MPEG)
Идентификатор кодека : DIVX
Идентификатор кодека/Информация : Project Mayo
Идентификатор кодека/Подсказка : DivX 4
Продолжительность : 1 ч. 40 м.
Битрейт : 857 Кбит/сек
Ширина : 640 пикселей
Высота : 272 пикселя
Соотношение сторон : 2,35:1
Частота кадров : 24,000 кадра/сек
Цветовое пространство : YUV
Субдискретизация насыщенности : 4:2:0
Битовая глубина : 8 бит
Тип развёртки : Прогрессивная
Метод сжатия : С потерями
Бит/(Пиксели*Кадры) : 0.205
Размер потока : 614 Мбайт (86%)
Библиотека кодирования : XviD 1.2.1 (UTC 2008-12-04)

Аудио
Идентификатор : 1
Формат : MPEG Audio
Версия формата : Version 1
Профиль формата : Layer 3
Настройки формата : Joint stereo / MS Stereo
Идентификатор кодека : 55
Идентификатор кодека/Подсказка : MP3
Продолжительность : 1 ч. 40 м.
Вид битрейта : Постоянный
Битрейт : 128 Кбит/сек
Каналы : 2 канала
Частота : 48,0 КГц
Частота кадров : 41,667 кадра/сек (1152 SPF)
Метод сжатия : С потерями
Размер потока : 91,6 Мбайт (13%)
Выравнивание : Соединение по промежуткам
Продолжительность промежутка : 42 мс. (1,00 видеокадр)
Время предзагрузки промежутка : 504 мс.
Библиотека кодирования : LAME3.99r
Настройки программы : -m j -V 4 -q 2 -lowpass 17 -b 128

Report created by : MediaInfoLib - v21.09
Report created on : UTC 2022-01-04 17:42:57

piratbit.org



Скачать 10 дней с Сантой через торрент https://i116.fastpic.org/big/2022/0105/79/f7236184313eb412ef525288e0fa0c79.jpg Скачать, смотреть онлайн 10 дней с Сантой бесплантно в хорошем качестве Описание: Карло, Джулия и трое их детей отправляются в Швецию на рождественские каникулы. По пути они случайно сбивают на машине странного ... 10 10 1
Торрент: Зарегистрирован [2022-01-04 17:59] · скачан: 19 раз
Статус: √ проверено
Размер: 712 MB
Как cкачать? Как скачать 10 дней с Сантой через торрент | UTorrent



Последний раз редактировалось: coc900 (2022-01-06 18:32), всего редактировалось 4 раз(а)

28-11-2019 20:33  

Отключить всю рекламу на сайте

    Дорогой пользователь! Огромная просьба, поблагодарите релизера, оцените раздачу и оставьте свои комментарий, если Вы скачали 10 дней с Сантой через торрент бесплатно!
    Комментировать посты могут только пользователи прошедшие не сложную регистрацию
    Показать сообщения:    

    10 дней с Сантой через торрент
    Скачать бесплатно 10 дней с Сантой
    10 дней с Сантой скачать торрент
    10 дней с Сантой смотреть онлайн
    Cкачать фильм 10 дней с Сантой бесплатно
    10 дней с Сантой скачать торрент в хорошем качестве
    10 дней с Сантой смотреть онлайн бесплатно в хорошем качестве


    Вы не можете начинать темы
    Вы не можете отвечать на сообщения
    Вы не можете редактировать свои сообщения
    Вы не можете удалять свои сообщения
    Вы не можете голосовать в опросах
    Вы не можете прикреплять файлы к сообщениям
    Вы можете скачивать файлы