Всегда рабочее зеркало без VPN и Proxy просто перед .vidak.icu напиши любое слово или цифру, Пример http://1ev.vidak.icu

>

7.4

iTunes

7.4

2 сезон

6.6

iTunes

1

6.9

1 сезон

7.2

iTunes

6.0

MVO

13

6.1

iTunes

8.3

Пиратка

30

ULTIMATE

pack

9.9

Лицензия

ВАЖНО

ИГРА 18+

pack

7.3

RePack

MK11

7.7

RePack

jed

7.8

RePack

fifa19

8.5

RePack

RDR2

RePack

NEED FOR SPEED™ PAYBACK

1 сезон

9 сезон

Бесстыжие 9 сезон

Все сериалы

все сериалы на PB.wtf

RePack

FAR CRY 5

Anonymous, добрый вечер, мы катастрофически не успеваем собрать деньги на оплату серверов, помогите нам пожалуйста 5,10,15р., для нас важна любая помощь . В качестве благодарности мы отключим Вам всю рекламу на сайте (укажите свой ник в строку Ваше имя)!

×
  
Magnet ссылка

Тайна Сен-Тропе / Mystère à Saint-Tropez (Николя Бенаму) [2021, Комедия, криминал, детектив, BDRip 1080p] DUB [iTunes] piratbit.org

Тайна Сен-Тропе через торрент piratbit.org

Раздают: 3 [ 28 KB/s ]
Размер: 8.81 GB | Добавлен: 18 д. назад | Торрент скачан:34 раза
Смотреть онлайн Тайна Сен-Тропе | Скачать    Ребята, помогите собрать деньги на оплату серверов!!!

06-01-2022 04:40 Тайна Сен-Тропе Скачать торрент  

Тайна Сен-Тропе | Mystère à Saint-Tropez
Год выпуска: 2021
Страна: Франция, Бельгия
Студия: Canal+ [fr], Ciné, Curiosa Films, France 2 Cinéma, France Télévision, Investisseurs Tax Shelter, Le Tax Shelter du Gouvernement Fédéral de Belgique, Ouille Productions, Région de Bruxelles-Capitale, Studio Canal, uFund, uMedia Family
Жанр: Комедия, криминал, детектив
Продолжительность: 01:29:57
Перевод: Дублированный | iTunes
Субтитры: отсутствуют

Режиссер: Николя Бенаму

rating

В ролях: Кристиан Клавье, Бенуа Пульворд, Тьерри Лермитт, Жером Коммандёр, Росси де Пальма, Вирджини Хок, Жерар Депардье, Венсан Дезанья, Николя Бриансон, Жиль Альма

Описание: Убийство — это не повод для смеха. Обычно. Но вот попробуйте сдержать улыбку, когда преступление происходит среди харизматичных богачей на курорте Сен-Тропе, а расследование ведет весьма эксцентричный и не самый смышленый сыщик. Мотив есть у каждого, а вот с дедукцией — явно дефицит! Чтобы распутать это дело, горе-детективу придется притвориться дворецким и затеряться между пафосными знаменитостями и знойными женщинами в этом Провансе гламура и роскоши. Что ж, такой отпуск точно будет незабываемым.

Качество: BDRip 1080p
Формат: MKV

Видео: MPEG-4 AVC, 1920x804, 13.0 Mbit/s, 24.000 fps
Аудио #01: 48 kHz, AC3, 5.1, 384 Kbps | iTunes | RUS |
Аудио #02: 48 kHz, AC3, 5.1, 640 Kbps | Оригинал | FRE |
скриншот  скриншот  скриншот  скриншот  скриншот  

General
Unique ID : 220267726001507818072543152304457179046 (0xA5B6055B97A5B2BF95CC0547587ADFA6)
Complete name : E:VideoDo.You.Do.You.Saint.Tropez.2021.BDRip.1080p.seleZen.mkv
Format : Matroska
Format version : Version 4
File size : 8.81 GiB
Duration : 1 h 29 min
Overall bit rate : 14.0 Mb/s
Movie name : Mystère à Saint-Tropez AKA Do You Do You Saint-Tropez 2021 from seleZen
Encoded date : UTC 2022-01-10 01:27:30
Writing application : mkvmerge v59.0.0 ('Shining Star') 64-bit
Writing library : libebml v1.4.2 + libmatroska v1.6.4

Video
ID : 1
Format : AVC
Format/Info : Advanced Video Codec
Format profile : High@L4.1
Format settings : CABAC / 5 Ref Frames
Format settings, CABAC : Yes
Format settings, Reference : 5 frames
Codec ID : V_MPEG4/ISO/AVC
Duration : 1 h 29 min
Bit rate : 13.0 Mb/s
Width : 1 920 pixels
Height : 804 pixels
Display aspect ratio : 2.40:1
Frame rate mode : Constant
Frame rate : 24.000 FPS
Color space : YUV
Chroma subsampling : 4:2:0
Bit depth : 8 bits
Scan type : Progressive
Bits/(Pixel*Frame) : 0.351
Stream size : 8.16 GiB (93%)
Writing library : x264 core 146 -from seleZen
Encoding settings : cabac=1 / ref=5 / deblock=1:-2:-2 / analyse=0x3:0x133 / me=umh / subme=10 / psy=1 / psy_rd=1.02:0.04 / mixed_ref=1 / me_range=32 / chroma_me=1 / trellis=2 / 8x8dct=1 / cqm=0 / deadzone=21,11 / fast_pskip=0 / chroma_qp_offset=-3 / threads=36 / lookahead_threads=6 / sliced_threads=0 / nr=0 / decimate=0 / interlaced=0 / bluray_compat=0 / constrained_intra=0 / bframes=8 / b_pyramid=2 / b_adapt=2 / b_bias=0 / direct=3 / weightb=1 / open_gop=0 / weightp=2 / keyint=240 / keyint_min=24 / scenecut=40 / intra_refresh=0 / rc_lookahead=50 / rc=2pass / mbtree=0 / bitrate=13000 / ratetol=1.0 / qcomp=0.60 / qpmin=0 / qpmax=51 / qpstep=4 / cplxblur=20.0 / qblur=0.5 / vbv_maxrate=50000 / vbv_bufsize=62500 / nal_hrd=none / filler=0 / ip_ratio=1.40 / pb_ratio=1.30 / aq=3:0.80
Language : English
Default : Yes
Forced : No

Audio #1
ID : 2
Format : AC-3
Format/Info : Audio Coding 3
Commercial name : Dolby Digital
Codec ID : A_AC3
Duration : 1 h 29 min
Bit rate mode : Constant
Bit rate : 384 kb/s
Channel(s) : 6 channels
Channel layout : L R C LFE Ls Rs
Sampling rate : 48.0 kHz
Frame rate : 31.250 FPS (1536 SPF)
Compression mode : Lossy
Stream size : 247 MiB (3%)
Title : iTunes
Language : Russian
Service kind : Complete Main
Default : Yes
Forced : Yes

Audio #2
ID : 3
Format : AC-3
Format/Info : Audio Coding 3
Commercial name : Dolby Digital
Codec ID : A_AC3
Duration : 1 h 29 min
Bit rate mode : Constant
Bit rate : 640 kb/s
Channel(s) : 6 channels
Channel layout : L R C LFE Ls Rs
Sampling rate : 48.0 kHz
Frame rate : 31.250 FPS (1536 SPF)
Compression mode : Lossy
Stream size : 412 MiB (5%)
Title : Original
Language : French
Service kind : Complete Main
Default : No
Forced : No

Menu
00:00:00.000 : Глава 01
00:08:12.750 : Глава 02
00:13:09.125 : Глава 03
00:21:29.958 : Глава 04
00:27:52.042 : Глава 05
00:35:04.667 : Глава 06
00:41:56.458 : Глава 07
00:49:45.167 : Глава 08
00:56:45.708 : Глава 09
01:05:04.375 : Глава 10
01:10:01.000 : Глава 11
01:19:47.667 : Глава 12

piratbit.org



Скачать Тайна Сен-Тропе через торрент https://c.radikal.ru/c04/2201/07/b7327ae1ba8b.jpg Скачать, смотреть онлайн Тайна Сен-Тропе бесплантно в хорошем качестве Описание: Убийство — это не повод для смеха. Обычно. Но вот попробуйте сдержать улыбку, когда преступление происходит среди харизматичных ... 10 10 6
Торрент: Зарегистрирован [2022-01-10 03:15] · скачан: 34 раз
Статус: √ проверено
Размер: 8.81 GB
Как cкачать? Как скачать Тайна Сен-Тропе через торрент | UTorrent

% Раздел Тема Автор DL S | L
Фильмы [HD 720p, 1080p] (Хороший звук DUB, MVO) [ 4.72 GB ] Тайна Сен-Тропе / Mystère à Saint-Tropez [2021 BDRip 720p] bober100 Скачать
1 | 0
Фильмы (WEB-DL 720p, 1080p) [ 3.17 GB ] Тайна Сен-Тропе / Mystère à Saint-Tropez [2021 WEB-DL 1080p] bober100 Скачать
2 | 0
Фильмы 2021 [DVDrip, WEB-DLRip, HDrip] (DUB, MVO) [ 1.45 GB ] Тайна Сен-Тропе / Mystère à Saint-Tropez [2021 BDRip-AVC] bober100 Скачать
7 | 0
Фильмы 2021 [DVDrip, WEB-DLRip, HDrip] (DUB, MVO) [ 746 MB ] Тайна Сен-Тропе / Mystère à Saint-Tropez [2021 BDRip] bober100 Скачать
3 | 0
Фильмы (Blu-ray, BD-Remux, HDDVD) [ 25.06 GB ] Тайна Сен-Тропе / Mystère à Saint-Tropez [2021 BD Remux 1080p] bober100 Скачать
2 | 0
Фильмы 2021 [DVDrip, WEB-DLRip, HDrip] (DUB, MVO) [ 1.56 GB ] Тайна Сен-Тропе / Mystère à Saint-Tropez [2021 WEB-DLRip-AVC] от ExKinoRay Lithuania Скачать
6 | 0
Фильмы 2021 [DVDrip, WEB-DLRip, HDrip] (DUB, MVO) [ 1.42 GB ] Тайна Сен-Тропе / Mystère à Saint-Tropez [2021 BDRip] bober100 Скачать
2 | 0

28-11-2019 20:33  

Отключить всю рекламу на сайте

    Дорогой пользователь! Огромная просьба, поблагодарите релизера, оцените раздачу и оставьте свои комментарий, если Вы скачали Тайна Сен-Тропе через торрент бесплатно!
    Комментировать посты могут только пользователи прошедшие не сложную регистрацию
    Показать сообщения:    

    Тайна Сен-Тропе через торрент
    Скачать бесплатно Тайна Сен-Тропе
    Тайна Сен-Тропе скачать торрент
    Тайна Сен-Тропе смотреть онлайн
    Cкачать фильм Тайна Сен-Тропе бесплатно
    Тайна Сен-Тропе скачать торрент в хорошем качестве
    Тайна Сен-Тропе смотреть онлайн бесплатно в хорошем качестве


    Вы не можете начинать темы
    Вы не можете отвечать на сообщения
    Вы не можете редактировать свои сообщения
    Вы не можете удалять свои сообщения
    Вы не можете голосовать в опросах
    Вы не можете прикреплять файлы к сообщениям
    Вы можете скачивать файлы