Всегда рабочее зеркало без VPN и Proxy просто перед .vidak.icu напиши любое слово или цифру, Пример http://sz8.vidak.icu

>

7.4

iTunes

7.4

2 сезон

6.6

iTunes

1

6.9

1 сезон

7.2

iTunes

6.0

MVO

13

6.1

iTunes

8.3

Пиратка

30

ULTIMATE

pack

9.9

Лицензия

ВАЖНО

ИГРА 18+

pack

7.3

RePack

MK11

7.7

RePack

jed

7.8

RePack

fifa19

8.5

RePack

RDR2

RePack

NEED FOR SPEED™ PAYBACK

1 сезон

9 сезон

Бесстыжие 9 сезон

Все сериалы

все сериалы на PB.wtf

RePack

FAR CRY 5

Anonymous, добрый вечер, мы катастрофически не успеваем собрать деньги на оплату серверов, помогите нам пожалуйста 5,10,15р., для нас важна любая помощь . В качестве благодарности мы отключим Вам всю рекламу на сайте (укажите свой ник в строку Ваше имя)!

×
  
Magnet ссылка

Легенда о волках / Wolfwalkers (Томм Мур, Росс Стюарт) [2020, мультфильм, фэнтези, приключения, семейный, BDRip 1080p] [DUB] + [МVO] - ExKinoRay piratbit.org

Легенда о волках через торрент piratbit.org

Раздают: 11 [ 2 MB/s ]
Размер: 11.9 GB | Добавлен: 22 д. назад | Торрент скачан:52 раза
Смотреть онлайн Легенда о волках | Скачать    Ребята, помогите собрать деньги на оплату серверов!!!

06-01-2022 14:40 Легенда о волках Скачать торрент  

Легенда о волках / Wolfwalkers
Год выпуска: 2020
Страна: Ирландия, Люксембург, Франция, США, Великобритания, Apple Original Films, Canal+ [fr] Cartoon Saloon, Film Fund Luxembourg, Gkids
Жанр: Мультфильм, фэнтези, приключения, семейный
Продолжительность: 01:43:49
Перевод: Дублированный | Пифагор по заказу Apple TV+
Перевод: Профессиональный многоголосый | NewStudio
Субтитры: Русские (Forced, Full), украинские, английские

Режиссер: Томм Мур, Росс Стюарт

rating

В ролях: Онор Нифси, Эва Уитэйкер, Шон Бин, Саймон Макберни, Мария Дойл Кеннеди, Томми Тирнан, Джон Кенни, Джон Мортон, Пол Янг, Нора Туми, Оливер МакГрат, Ниам Мойлс

Описание: Ирландия, 1650 год. Вокруг города Килкенни идёт вырубка лесов, участились случаи нападения волков, поэтому вызванному из Англии охотнику приказано истребить хищников. Несмотря на строгий заперт отца, дочь охотника Робин не может усидеть дома и, желая помочь, пробирается в лесную чащу, где сталкивается со странной девочкой Мейв. Вскоре с Робин произойдёт удивительное событие, благодаря чему она узнает много интересного об ирландских лесах и о самой себе.

Качество: BDRip 1080p
Формат: MKV
Видео кодек: H.264
Аудио кодек: AC3
Видео: MPEG-4 AVC, 12.8 Mбит/с, 1920x1040
Аудио 1: Русский (АС3, 6 ch, 640 Кбит/с) DUB (AppleTV+ (Пифагор))
Аудио 2: Русский (АС3, 6 ch, 640 Кбит/с) MVO (NewStudio)
Аудио 3: Украинский (АС3, 6 ch, 640 Кбит/с) MVO (Strugachka)
Аудио 4: Русский (АС3, 6 ch, 640 Кбит/с) DUB (с тифлокомментированием)
Аудио 5: Английский (АС3, 6 ch, 640 Кбит/с) Original
Аудио 6: Английский (АС3, 6 ch, 448 Кбит/с) Commentary with Director Tomm Moore and Screenwriter Will Collins

Релиз от:
Общее
Уникальный идентификатор : 218255236510472387081443911635945304497 (0xA4326DF716067AC28B985E3F76B2B1B1)
Полное имя : D:\Раздача\Legenda.O.Volkah.2020.BDRip 1080p.ExKinoRay.mkv
Формат : Matroska
Версия формата : Version 4 / Version 2
Размер файла : 11,9 Гбайт
Продолжительность : 1 ч. 43 м.
Общий поток : 16,4 Мбит/сек
Название фильма : Wolfwalkers.2020.BDRip 1080p.grab777 & ExKinoRay
Дата кодирования : UTC 2022-01-01 05:52:42
Программа кодирования : mkvmerge v7.3.0 ('Nouages') 64bit built on Oct 22 2014 18:53:34
Библиотека кодирования : libebml v1.3.0 + libmatroska v1.4.1

Видео
Идентификатор : 1
Формат : AVC
Формат/Информация : Advanced Video Codec
Профиль формата : High@L4.1
Настройки формата : CABAC / 4 Ref Frames
Параметр CABAC формата : Да
Параметр RefFrames формата : 4 кадра
Идентификатор кодека : V_MPEG4/ISO/AVC
Продолжительность : 1 ч. 43 м.
Битрейт : 12,8 Мбит/сек
Ширина : 1920 пикселей
Высота : 1040 пикселей
Соотношение сторон : 1,85:1
Режим частоты кадров : Постоянный
Частота кадров : 23,976 (24000/1001) кадра/сек
Цветовое пространство : YUV
Субдискретизация насыщенности : 4:2:0
Битовая глубина : 8 бит
Тип развёртки : Прогрессивная
Бит/(Пиксели*Кадры) : 0.267
Размер потока : 9,25 Гбайт (78%)
Заголовок : NOGRP
Библиотека кодирования : x264 core 164 r3079+60M Encoded by Azevedo in Brazil
Настройки программы : cabac=1 / ref=4 / deblock=1:-3:-3 / analyse=0x3:0x113 / me=umh / subme=11 / psy=1 / fade_compensate=0.00 / psy_rd=0.80:0.00 / mixed_ref=1 / me_range=48 / chroma_me=1 / trellis=2 / 8x8dct=1 / cqm=0 / deadzone=21,11 / fast_pskip=0 / chroma_qp_offset=-2 / threads=18 / lookahead_threads=4 / sliced_threads=0 / nr=0 / decimate=0 / interlaced=0 / bluray_compat=0 / constrained_intra=0 / fgo=0 / bframes=14 / b_pyramid=2 / b_adapt=2 / b_bias=0 / direct=3 / weightb=1 / open_gop=0 / weightp=2 / keyint=250 / keyint_min=23 / scenecut=40 / intra_refresh=0 / rc_lookahead=60 / rc=crf / mbtree=0 / crf=14.8000 / qcomp=0.60 / qpmin=0:0:0 / qpmax=69:69:69 / qpstep=4 / vbv_maxrate=62500 / vbv_bufsize=78125 / crf_max=0.0 / nal_hrd=none / filler=0 / ip_ratio=1.30 / pb_ratio=1.20 / aq=3:0.90 / aq-sensitivity=10.00 / aq-factor=1.00:1.00:1.00 / aq2=0 / aq3=0 / zones=553,841,crf=13.8/1562,1679,crf=13.8
Язык : English
Default : Да
Forced : Нет
Цветовой диапазон : Limited
Основные цвета : BT.709
Характеристики трансфера : BT.709
Коэффициенты матрицы : BT.709

Аудио #1
Идентификатор : 2
Формат : AC-3
Формат/Информация : Audio Coding 3
Параметр Endianness формата : Big
Идентификатор кодека : A_AC3
Продолжительность : 1 ч. 43 м.
Вид битрейта : Постоянный
Битрейт : 640 Кбит/сек
Каналы : 6 каналов
Расположение каналов : Front: L C R, Side: L R, LFE
Частота : 48,0 КГц
Частота кадров : 31,250 кадров/сек (1536 SPF)
Битовая глубина : 16 бит
Метод сжатия : С потерями
Размер потока : 475 Мбайт (4%)
Заголовок : DUB (AppleTV+ (Пифагор))
Язык : Russian
ServiceKind/String : Complete Main
Default : Да
Forced : Нет

Аудио #2
Идентификатор : 3
Формат : AC-3
Формат/Информация : Audio Coding 3
Параметр Endianness формата : Big
Идентификатор кодека : A_AC3
Продолжительность : 1 ч. 43 м.
Вид битрейта : Постоянный
Битрейт : 640 Кбит/сек
Каналы : 6 каналов
Расположение каналов : Front: L C R, Side: L R, LFE
Частота : 48,0 КГц
Частота кадров : 31,250 кадров/сек (1536 SPF)
Битовая глубина : 16 бит
Метод сжатия : С потерями
Размер потока : 475 Мбайт (4%)
Заголовок : MVO (NewStudio)
Язык : Russian
ServiceKind/String : Complete Main
Default : Нет
Forced : Нет

Аудио #3
Идентификатор : 4
Формат : AC-3
Формат/Информация : Audio Coding 3
Параметр Endianness формата : Big
Идентификатор кодека : A_AC3
Продолжительность : 1 ч. 43 м.
Вид битрейта : Постоянный
Битрейт : 640 Кбит/сек
Каналы : 6 каналов
Расположение каналов : Front: L C R, Side: L R, LFE
Частота : 48,0 КГц
Частота кадров : 31,250 кадров/сек (1536 SPF)
Битовая глубина : 16 бит
Метод сжатия : С потерями
Размер потока : 475 Мбайт (4%)
Заголовок : MVO (Strugachka)
Язык : Ukrainian
ServiceKind/String : Complete Main
Default : Нет
Forced : Нет

Аудио #4
Идентификатор : 5
Формат : AC-3
Формат/Информация : Audio Coding 3
Параметр Endianness формата : Big
Идентификатор кодека : A_AC3
Продолжительность : 1 ч. 43 м.
Вид битрейта : Постоянный
Битрейт : 640 Кбит/сек
Каналы : 6 каналов
Расположение каналов : Front: L C R, Side: L R, LFE
Частота : 48,0 КГц
Частота кадров : 31,250 кадров/сек (1536 SPF)
Битовая глубина : 16 бит
Метод сжатия : С потерями
Размер потока : 475 Мбайт (4%)
Заголовок : TK
Язык : Russian
ServiceKind/String : Complete Main
Default : Нет
Forced : Нет

Аудио #5
Идентификатор : 6
Формат : AC-3
Формат/Информация : Audio Coding 3
Параметр Endianness формата : Big
Идентификатор кодека : A_AC3
Продолжительность : 1 ч. 43 м.
Вид битрейта : Постоянный
Битрейт : 640 Кбит/сек
Каналы : 6 каналов
Расположение каналов : Front: L C R, Side: L R, LFE
Частота : 48,0 КГц
Частота кадров : 31,250 кадров/сек (1536 SPF)
Битовая глубина : 16 бит
Метод сжатия : С потерями
Размер потока : 475 Мбайт (4%)
Заголовок : Original
Язык : English
ServiceKind/String : Complete Main
Default : Нет
Forced : Нет

Аудио #6
Идентификатор : 7
Формат : AC-3
Формат/Информация : Audio Coding 3
Параметр Endianness формата : Big
Идентификатор кодека : A_AC3
Продолжительность : 1 ч. 43 м.
Вид битрейта : Постоянный
Битрейт : 448 Кбит/сек
Каналы : 6 каналов
Расположение каналов : Front: L C R, Side: L R, LFE
Частота : 48,0 КГц
Частота кадров : 31,250 кадров/сек (1536 SPF)
Битовая глубина : 16 бит
Метод сжатия : С потерями
Размер потока : 333 Мбайт (3%)
Заголовок : Commentary with Director Tomm Moore and Screenwriter Will Collins
Язык : English
ServiceKind/String : Complete Main
Default : Нет
Forced : Нет

Текст #1
Идентификатор : 8
Формат : UTF-8
Идентификатор кодека : S_TEXT/UTF8
Идентификатор кодека/Информация : UTF-8 Plain Text
Продолжительность : 1 ч. 41 м.
Битрейт : 0 бит/сек
ElementCount : 5
Размер потока : 184 байт (0%)
Заголовок : forced
Язык : Russian
Default : Да
Forced : Нет

Текст #2
Идентификатор : 9
Формат : UTF-8
Идентификатор кодека : S_TEXT/UTF8
Идентификатор кодека/Информация : UTF-8 Plain Text
Продолжительность : 1 ч. 41 м.
Битрейт : 62 бит/сек
ElementCount : 1114
Размер потока : 46,3 Кбайт (0%)
Заголовок : full
Язык : Russian
Default : Нет
Forced : Нет

Текст #3
Идентификатор : 10
Формат : UTF-8
Идентификатор кодека : S_TEXT/UTF8
Идентификатор кодека/Информация : UTF-8 Plain Text
Продолжительность : 1 ч. 42 м.
Битрейт : 93 бит/сек
ElementCount : 1571
Размер потока : 70,1 Кбайт (0%)
Заголовок : SDH
Язык : Russian
Default : Нет
Forced : Нет

Текст #4
Идентификатор : 11
Формат : UTF-8
Идентификатор кодека : S_TEXT/UTF8
Идентификатор кодека/Информация : UTF-8 Plain Text
Продолжительность : 1 ч. 41 м.
Битрейт : 66 бит/сек
ElementCount : 1108
Размер потока : 49,2 Кбайт (0%)
Заголовок : full
Язык : Ukrainian
Default : Нет
Forced : Нет

Текст #5
Идентификатор : 12
Формат : UTF-8
Идентификатор кодека : S_TEXT/UTF8
Идентификатор кодека/Информация : UTF-8 Plain Text
Продолжительность : 1 ч. 42 м.
Битрейт : 87 бит/сек
ElementCount : 1606
Размер потока : 65,2 Кбайт (0%)
Заголовок : SDH
Язык : Ukrainian
Default : Нет
Forced : Нет

Текст #6
Идентификатор : 13
Формат : UTF-8
Идентификатор кодека : S_TEXT/UTF8
Идентификатор кодека/Информация : UTF-8 Plain Text
Продолжительность : 1 ч. 36 м.
Битрейт : 49 бит/сек
ElementCount : 1151
Размер потока : 35,0 Кбайт (0%)
Заголовок : full
Язык : English
Default : Нет
Forced : Нет

Текст #7
Идентификатор : 14
Формат : UTF-8
Идентификатор кодека : S_TEXT/UTF8
Идентификатор кодека/Информация : UTF-8 Plain Text
Продолжительность : 1 ч. 37 м.
Битрейт : 63 бит/сек
ElementCount : 1639
Размер потока : 45,7 Кбайт (0%)
Заголовок : SDH
Язык : English
Default : Нет
Forced : Нет

Меню
00:00:00.000 : en:Chapter 01
00:05:25.492 : en:Chapter 02
00:11:59.510 : en:Chapter 03
00:16:07.592 : en:Chapter 04
00:20:44.118 : en:Chapter 05
00:25:32.614 : en:Chapter 06
00:31:34.142 : en:Chapter 07
00:36:21.137 : en:Chapter 08
00:41:02.293 : en:Chapter 09
00:45:40.196 : en:Chapter 10
00:51:01.892 : en:Chapter 11
00:56:32.222 : en:Chapter 12
01:01:42.699 : en:Chapter 13
01:06:24.689 : en:Chapter 14
01:12:39.188 : en:Chapter 15
01:19:04.198 : en:Chapter 16
01:24:18.929 : en:Chapter 17
01:28:54.246 : en:Chapter 18
01:32:37.719 : en:Chapter 19
01:37:48.029 : en:Chapter 20

piratbit.org



Скачать Легенда о волках через торрент https://a.radikal.ru/a03/2201/67/f84726b9e527.jpg Скачать, смотреть онлайн Легенда о волках бесплантно в хорошем качестве Описание: Ирландия, 1650 год. Вокруг города Килкенни идёт вырубка лесов, участились случаи нападения волков, поэтому вызванному из Англии ... 10 10 2
Торрент: Зарегистрирован [2022-01-06 14:40] · скачан: 52 раз
Статус: √ проверено
Размер: 11.9 GB
Как cкачать? Как скачать Легенда о волках через торрент | UTorrent

28-11-2019 20:33  

Отключить всю рекламу на сайте

07-01-2022 08:38 Легенда о волках Скачать торрент  

Мульт. просто бомба, советую!piratbit.org



08-01-2022 13:16 Легенда о волках Скачать торрент  

Крутой мульт. Красивый, необычная рисовка, интересные персонажи.piratbit.org



    Дорогой пользователь! Огромная просьба, поблагодарите релизера, оцените раздачу и оставьте свои комментарий, если Вы скачали Легенда о волках через торрент бесплатно!
    Комментировать посты могут только пользователи прошедшие не сложную регистрацию
    Показать сообщения:    

    Легенда о волках через торрент
    Скачать бесплатно Легенда о волках
    Легенда о волках скачать торрент
    Легенда о волках смотреть онлайн
    Cкачать фильм Легенда о волках бесплатно
    Легенда о волках скачать торрент в хорошем качестве
    Легенда о волках смотреть онлайн бесплатно в хорошем качестве


    Вы не можете начинать темы
    Вы не можете отвечать на сообщения
    Вы не можете редактировать свои сообщения
    Вы не можете удалять свои сообщения
    Вы не можете голосовать в опросах
    Вы не можете прикреплять файлы к сообщениям
    Вы можете скачивать файлы