Всегда рабочее зеркало без VPN и Proxy просто перед .vidak.icu напиши любое слово или цифру, Пример http://fhw.vidak.icu

>

7.4

iTunes

7.4

2 сезон

6.6

iTunes

1

6.9

1 сезон

7.2

iTunes

6.0

MVO

13

6.1

iTunes

8.3

Пиратка

30

ULTIMATE

pack

9.9

Лицензия

ВАЖНО

ИГРА 18+

pack

7.3

RePack

MK11

7.7

RePack

jed

7.8

RePack

fifa19

8.5

RePack

RDR2

RePack

NEED FOR SPEED™ PAYBACK

1 сезон

9 сезон

Бесстыжие 9 сезон

Все сериалы

все сериалы на PB.wtf

RePack

FAR CRY 5

Anonymous, добрый вечер, мы катастрофически не успеваем собрать деньги на оплату серверов, помогите нам пожалуйста 5,10,15р., для нас важна любая помощь . В качестве благодарности мы отключим Вам всю рекламу на сайте (укажите свой ник в строку Ваше имя)!

×
  
Magnet ссылка

Семейка Аддамс: Горящий тур / The Addams Family 2 (Грег Тирнан, Конрад Вернон, Лаура Бруссо) [2021, Мультфильм, ужасы, фэнтези, комедия, приключения, семейный, BDRip 720p] DUB [iTunes] piratbit.org

Семейка Аддамс: Горящий тур через торрент piratbit.org

Раздают: 16 [ 490 KB/s ]
Размер: 3.43 GB | Добавлен: 19 д. назад | Торрент скачан:114 раз
Смотреть онлайн Семейка Аддамс: Горящий тур | Скачать    Ребята, помогите собрать деньги на оплату серверов!!!

09-01-2022 03:46 Семейка Аддамс: Горящий тур Скачать торрент  

Семейка Аддамс: Горящий тур
The Addams Family 2

Год выпуска: 2021
Страна: США, Канада
Студия: BermanBraun, Bron Creative, Bron Studios, Cinesite Animation, Creative Wealth Media Finance, Glickmania, Metro-Goldwyn-Mayer (MGM)
Жанр: Мультфильм, ужасы, фэнтези, комедия, приключения, семейный
Продолжительность: 01:32:45
Перевод: Дублированный | iTunes
Субтитры: Русские (Forced, full), английские

Режиссер: Грег Тирнан, Конрад Вернон, Лаура Бруссо

rating

В ролях: Оскар Айзек, Шарлиз Терон, Хлоя Грейс Морец, Джейвон Уолтон, Ник Кролл, Снуп Догг, Бетт Мидлер, Конрад Вернон, Билл Хейдер, Уоллес Шоун

Описание: Мортиша и Гомес в ужасе от того, как быстро растут их дети, которые все чаще пропускают семейные обеды, предпочитая этому куда более леденящие кровь занятия. Поэтому родители решают взять Венсди, Пагсли и дядю Фестера в не слишком счастливую совместную поездку на своем призрачном кемпере. Что может пойти не так в этом странном путешествии семейки Аддамс?

Качество: BDRip 720p
Формат: MKV

Видео: MPEG-4 AVC, 1280x694, 4272 Kbit/s, 23.976 fps
Аудио #01: 48 kHz, AC3, 5.1, 384 Kbps | Дублированный | iTunes | RUS |
Аудио #02: 48 kHz, AC3, 5.1, 640 Kbps | Оригинал | ENG |
скриншот  скриншот  скриншот  скриншот  скриншот  

General
Unique ID : 247096292958459843906117489307760466173 (0xB9E503D57081314FCBE887A681C018FD)
Complete name : E:VideoThe.Addams.Family.2.2021.BDRip.720p.seleZen.mkv
Format : Matroska
Format version : Version 4
File size : 3.43 GiB
Duration : 1 h 32 min
Overall bit rate : 5 298 kb/s
Movie name : The Addams Family 2 2021 from seleZen
Encoded date : UTC 2022-01-08 20:26:15
Writing application : mkvmerge v59.0.0 ('Shining Star') 64-bit
Writing library : libebml v1.4.2 + libmatroska v1.6.4

Video
ID : 1
Format : AVC
Format/Info : Advanced Video Codec
Format profile : High@L4.1
Format settings : CABAC / 9 Ref Frames
Format settings, CABAC : Yes
Format settings, Reference : 9 frames
Codec ID : V_MPEG4/ISO/AVC
Duration : 1 h 32 min
Bit rate : 4 272 kb/s
Width : 1 280 pixels
Height : 694 pixels
Display aspect ratio : 1.85:1
Frame rate mode : Constant
Frame rate : 23.976 (24000/1001) FPS
Color space : YUV
Chroma subsampling : 4:2:0
Bit depth : 8 bits
Scan type : Progressive
Bits/(Pixel*Frame) : 0.201
Stream size : 2.77 GiB (81%)
Title : MTeam
Writing library : x264 core 157 r2938 2b00a84 TnP@MTeam Mod
Encoding settings : cabac=1 / ref=9 / deblock=1:-3:-3 / analyse=0x3:0x133 / me=umh / subme=10 / psy=1 / psy_rd=1.05:0.00 / mixed_ref=1 / me_range=32 / chroma_me=1 / trellis=2 / 8x8dct=1 / cqm=0 / deadzone=21,11 / fast_pskip=0 / chroma_qp_offset=-2 / threads=12 / lookahead_threads=2 / sliced_threads=0 / nr=0 / decimate=0 / interlaced=0 / bluray_compat=0 / constrained_intra=0 / bframes=8 / b_pyramid=2 / b_adapt=2 / b_bias=0 / direct=3 / weightb=1 / open_gop=0 / weightp=2 / keyint=250 / keyint_min=24 / scenecut=40 / intra_refresh=0 / rc_lookahead=250 / rc=crf / mbtree=0 / crf=16.8 / qcomp=0.60 / qpmin=0 / qpmax=69 / qpstep=4 / vbv_maxrate=62500 / vbv_bufsize=78125 / crf_max=0.0 / nal_hrd=none / filler=0 / ip_ratio=1.30 / pb_ratio=1.20 / aq=3:0.80
Language : English
Default : Yes
Forced : No
Color range : Limited
Color primaries : BT.709
Matrix coefficients : BT.709

Audio #1
ID : 2
Format : AC-3
Format/Info : Audio Coding 3
Commercial name : Dolby Digital
Codec ID : A_AC3
Duration : 1 h 32 min
Bit rate mode : Constant
Bit rate : 384 kb/s
Channel(s) : 6 channels
Channel layout : L R C LFE Ls Rs
Sampling rate : 48.0 kHz
Frame rate : 31.250 FPS (1536 SPF)
Compression mode : Lossy
Stream size : 255 MiB (7%)
Title : iTunes
Language : Russian
Service kind : Complete Main
Default : Yes
Forced : Yes

Audio #2
ID : 3
Format : AC-3
Format/Info : Audio Coding 3
Commercial name : Dolby Digital
Codec ID : A_AC3
Duration : 1 h 32 min
Bit rate mode : Constant
Bit rate : 640 kb/s
Channel(s) : 6 channels
Channel layout : L R C LFE Ls Rs
Sampling rate : 48.0 kHz
Frame rate : 31.250 FPS (1536 SPF)
Compression mode : Lossy
Stream size : 425 MiB (12%)
Title : Original
Language : English
Service kind : Complete Main
Default : No
Forced : No

Text #1
ID : 4
Format : UTF-8
Codec ID : S_TEXT/UTF8
Codec ID/Info : UTF-8 Plain Text
Duration : 1 h 25 min
Bit rate : 2 b/s
Count of elements : 45
Stream size : 1.52 KiB (0%)
Title : Forced
Language : Russian
Default : Yes
Forced : Yes

Text #2
ID : 5
Format : UTF-8
Codec ID : S_TEXT/UTF8
Codec ID/Info : UTF-8 Plain Text
Duration : 1 h 25 min
Bit rate : 96 b/s
Count of elements : 1211
Stream size : 60.3 KiB (0%)
Title : Full
Language : Russian
Default : No
Forced : No

Text #3
ID : 6
Format : UTF-8
Codec ID : S_TEXT/UTF8
Codec ID/Info : UTF-8 Plain Text
Duration : 1 h 27 min
Bit rate : 56 b/s
Count of elements : 1437
Stream size : 36.1 KiB (0%)
Title : Full
Language : English
Default : No
Forced : No

Text #4
ID : 7
Format : UTF-8
Codec ID : S_TEXT/UTF8
Codec ID/Info : UTF-8 Plain Text
Duration : 1 h 27 min
Bit rate : 80 b/s
Count of elements : 1870
Stream size : 51.8 KiB (0%)
Title : SDH
Language : English
Default : No
Forced : No

Menu
00:00:00.000 : Chapter 01
00:04:18.925 : Chapter 02
00:10:36.886 : Chapter 03
00:16:18.644 : Chapter 04
00:21:53.854 : Chapter 05
00:23:46.008 : Chapter 06
00:28:01.346 : Chapter 07
00:31:57.833 : Chapter 08
00:38:49.452 : Chapter 09
00:44:27.999 : Chapter 10
00:48:50.427 : Chapter 11
00:53:08.852 : Chapter 12
00:56:38.353 : Chapter 13
01:01:12.419 : Chapter 14
01:04:57.477 : Chapter 15
01:11:12.935 : Chapter 16
01:14:05.691 : Chapter 17
01:19:42.027 : Chapter 18
01:22:52.009 : Chapter 19
01:26:15.379 : Chapter 20

piratbit.org



Скачать Семейка Аддамс: Горящий тур через торрент https://i6.imageban.ru/out/2022/01/11/45ba6332ece22ca60b33f5c3bb6e6603.png Скачать, смотреть онлайн Семейка Аддамс: Горящий тур бесплантно в хорошем качестве Описание: Мортиша и Гомес в ужасе от того, как быстро растут их дети, которые все чаще пропускают семейные обеды, предпочитая этому куда ... 10 10 3
Торрент: Зарегистрирован [2022-01-09 03:46] · скачан: 114 раз
Статус: √ проверено
Размер: 3.43 GB
Как cкачать? Как скачать Семейка Аддамс: Горящий тур через торрент | UTorrent

% Раздел Тема Автор DL S | L
Иностранные мультфильмы [ 748 MB ] Семейка Аддамс: Горящий тур / The Addams Family 2 [2021 Мультфильм WEB-DLRip] bober100 Скачать
3 | 0
Зарубежные Мультфильмы (BDRip 1080p, 720p, Blu-ray, BD-Remux) [ 21.48 GB ] Семейка Аддамс: Горящий тур / The Addams Family 2 [2021 Мультфильм BD Remux 1080p] bober100 Скачать
4 | 0
Иностранные мультфильмы [ 1.45 GB ] Семейка Аддамс: Горящий тур / The Addams Family 2 [2021 Мультфильм HDRip-AVC] bober100 Скачать
6 | 0
Зарубежные Мультфильмы (BDRip 1080p, 720p, Blu-ray, BD-Remux) [ 8.7 GB ] Семейка Аддамс: Горящий тур / The Addams Family 2 [2021 Мультфильм BDRip 1080p] bober100 Скачать
14 | 0
Иностранные мультфильмы [ 1.8 GB ] Семейка Аддамс: Горящий тур / The Addams Family 2 [2021 Мультфильм BDRip-AVC] DUB [ ] от ExKinoRay Lithuania Скачать
2 | 0
Иностранные мультфильмы [ 1.42 GB ] Семейка Аддамс: Горящий тур / The Addams Family 2 [2021 Мультфильм BDRip] - Twi7ter Скачать
88 | 13
Иностранные мультфильмы [ 1.42 GB ] Семейка Аддамс: Горящий тур / The Addams Family 2 [2021 Мультфильм BDRip] bober100 Скачать
3 | 0

28-11-2019 20:33  

Отключить всю рекламу на сайте

    Дорогой пользователь! Огромная просьба, поблагодарите релизера, оцените раздачу и оставьте свои комментарий, если Вы скачали Семейка Аддамс: Горящий тур через торрент бесплатно!
    Комментировать посты могут только пользователи прошедшие не сложную регистрацию
    Показать сообщения:    

    Семейка Аддамс: Горящий тур через торрент
    Скачать бесплатно Семейка Аддамс: Горящий тур
    Семейка Аддамс: Горящий тур скачать торрент
    Семейка Аддамс: Горящий тур смотреть онлайн
    Cкачать фильм Семейка Аддамс: Горящий тур бесплатно
    Семейка Аддамс: Горящий тур скачать торрент в хорошем качестве
    Семейка Аддамс: Горящий тур смотреть онлайн бесплатно в хорошем качестве


    Вы не можете начинать темы
    Вы не можете отвечать на сообщения
    Вы не можете редактировать свои сообщения
    Вы не можете удалять свои сообщения
    Вы не можете голосовать в опросах
    Вы не можете прикреплять файлы к сообщениям
    Вы можете скачивать файлы