Всегда рабочее зеркало без VPN и Proxy просто перед .vidak.icu напиши любое слово или цифру, Пример http://ss3.vidak.icu

>

7.4

iTunes

7.4

2 сезон

6.6

iTunes

1

6.9

1 сезон

7.2

iTunes

6.0

MVO

13

6.1

iTunes

8.3

Пиратка

30

ULTIMATE

pack

9.9

Лицензия

ВАЖНО

ИГРА 18+

pack

7.3

RePack

MK11

7.7

RePack

jed

7.8

RePack

fifa19

8.5

RePack

RDR2

RePack

NEED FOR SPEED™ PAYBACK

1 сезон

9 сезон

Бесстыжие 9 сезон

Все сериалы

все сериалы на PB.wtf

RePack

FAR CRY 5

Anonymous, добрый вечер, мы катастрофически не успеваем собрать деньги на оплату серверов, помогите нам пожалуйста 5,10,15р., для нас важна любая помощь . В качестве благодарности мы отключим Вам всю рекламу на сайте (укажите свой ник в строку Ваше имя)!

×
  
Magnet ссылка

Как я полюбила гангстера / Jak pokochalam gangstera (Мацей Кавульский) [2022, Драма, криминал, WEB-DL 1080p] DUB (rus, ukr) [VSI Moscow / Netflix] piratbit.org

Как я полюбила гангстера через торрент piratbit.org

Раздают: 7 [ 472 KB/s ]
Размер: 6.32 GB | Добавлен: 18 д. назад | Торрент скачан:87 раз
Смотреть онлайн Как я полюбила гангстера | Скачать    Ребята, помогите собрать деньги на оплату серверов!!!

10-01-2022 03:32 Как я полюбила гангстера Скачать торрент  

Как я полюбила гангстера
Jak pokochalam gangstera

Год выпуска: 2022
Страна: Польша
Жанр: Драма, криминал
Продолжительность: 03:05:44
Перевод: Дублированный | VSI Moscow по заказу Netflix
Субтитры: Русские (Forced, Full), украинские (Forced, Full), польские (Forced, Full), английские (Full, SDH), немецкие, иврит, румынские

Режиссер: Мацей Кавульский

rating

В ролях: Томаш Влосок, Антони Круликовский, Агнешка Гроховская, Магдалена Лампарская, Кристина Янда, Клаудиуш Кауфманн, Эрик Любос, Себастьян Фабияньский, Юлия Венява-Наркевич, Миколай Кубацкий, Давид Огродник, Кароль Бернацкий, Януш Хабёр, Анита Поддембняк, Анджей Мусял, Рафал Мор, Эвелина Панковская, Клара Белявка, Эдита Хербусь, Анна Чарторыская, Адам Турчык, Марцин Чарник, Паулюс Чижинаускас, Кшиштоф Зажецкий

Описание: Неизвестная женщина повествует о полном взлётов и падений пути Никодема «Никоша» Скотарчака, одного из крупнейших гангстеров в Польше. Основано на реальных событиях.

Качество: WEB-DL 1080p
Формат: MKV

Видео: AVC, 1920x1080 (16:9), 25 fps, ~2943 kbps
Аудио №1: E-AC3, 48 kHz, 6 ch, 640 kbps
Аудио №2: E-AC3, 48 kHz, 6 ch, 640 kbps
Аудио №3: E-AC3, 48 kHz, 6 ch, 640 kbps
скриншот  скриншот  скриншот  скриншот  

General
Unique ID : 170985671255036200977998984629997657612 (0x80A2A4767F4376054075329FA4B9DE0C)
Complete name : Jak.Pokochalam.Gangstera.2022.1080p.NF.WEB-DL.DDP5.1.H.264-EniaHD.mkv
Format : Matroska
Format version : Version 4
File size : 6.32 GiB
Duration : 3 h 5 min
Overall bit rate mode : Variable
Overall bit rate : 4 866 kb/s
Movie name : Jak pokochalam gangstera (2022) - EniaHD
Writing application : mkvmerge v64.0.0 ('Willows') 64-bit
Writing library : libebml v1.4.2 + libmatroska v1.6.4

Video
ID : 1
Format : AVC
Format/Info : Advanced Video Codec
Format profile : Main@L4
Format settings : CABAC / 3 Ref Frames
Format settings, CABAC : Yes
Format settings, Reference fra : 3 frames
Codec ID : V_MPEG4/ISO/AVC
Duration : 3 h 5 min
Bit rate mode : Variable
Bit rate : 2 943 kb/s
Nominal bit rate : 1 712 kb/s
Maximum bit rate : 4 980 kb/s
Width : 1 920 pixels
Height : 1 080 pixels
Display aspect ratio : 16:9
Frame rate mode : Constant
Frame rate : 25.000 FPS
Color space : YUV
Chroma subsampling : 4:2:0
Bit depth : 8 bits
Scan type : Progressive
Bits/(Pixel*Frame) : 0.057
Stream size : 3.82 GiB (60%)
Writing library : x264 core 148 r2727 7d026e8
Encoding settings : cabac=1 / ref=3 / deblock=1:0:0 / analyse=0x1:0x111 / me=umh / subme=10 / psy=1 / psy_rd=1.00:0.00 / mixed_ref=1 / me_range=24 / chroma_me=1 / trellis=2 / 8x8dct=0 / cqm=0 / deadzone=21,11 / fast_pskip=1 / chroma_qp_offset=-2 / threads=6 / lookahead_threads=1 / sliced_threads=0 / nr=0 / decimate=1 / interlaced=0 / bluray_compat=0 / stitchable=1 / constrained_intra=0 / bframes=2 / b_pyramid=0 / b_adapt=2 / b_bias=0 / direct=3 / weightb=1 / open_gop=0 / weightp=2 / keyint=250 / keyint_min=25 / scenecut=0 / intra_refresh=0 / rc_lookahead=50 / rc=2pass / mbtree=1 / bitrate=1712 / ratetol=1.0 / qcomp=0.50 / qpmin=6 / qpmax=51 / qpstep=4 / cplxblur=20.0 / qblur=0.5 / vbv_maxrate=4980 / vbv_bufsize=6640 / nal_hrd=vbr / filler=0 / ip_ratio=1.40 / aq=1:1.00
Default : Yes
Forced : No

Audio #1
ID : 2
Format : E-AC-3
Format/Info : Enhanced AC-3
Commercial name : Dolby Digital Plus
Codec ID : A_EAC3
Duration : 3 h 5 min
Bit rate mode : Constant
Bit rate : 640 kb/s
Channel(s) : 6 channels
Channel layout : L R C LFE Ls Rs
Sampling rate : 48.0 kHz
Frame rate : 31.250 FPS (1536 SPF)
Compression mode : Lossy
Stream size : 851 MiB (13%)
Language : Russian
Service kind : Complete Main
Default : Yes
Forced : No

Audio #2
ID : 3
Format : E-AC-3
Format/Info : Enhanced AC-3
Commercial name : Dolby Digital Plus
Codec ID : A_EAC3
Duration : 3 h 5 min
Bit rate mode : Constant
Bit rate : 640 kb/s
Channel(s) : 6 channels
Channel layout : L R C LFE Ls Rs
Sampling rate : 48.0 kHz
Frame rate : 31.250 FPS (1536 SPF)
Compression mode : Lossy
Stream size : 851 MiB (13%)
Language : Ukrainian
Service kind : Complete Main
Default : No
Forced : No

Audio #3
ID : 4
Format : E-AC-3
Format/Info : Enhanced AC-3
Commercial name : Dolby Digital Plus
Codec ID : A_EAC3
Duration : 3 h 5 min
Bit rate mode : Constant
Bit rate : 640 kb/s
Channel(s) : 6 channels
Channel layout : L R C LFE Ls Rs
Sampling rate : 48.0 kHz
Frame rate : 31.250 FPS (1536 SPF)
Compression mode : Lossy
Stream size : 851 MiB (13%)
Language : Polish
Service kind : Complete Main
Default : No
Forced : No

Text #1
ID : 5
Format : UTF-8
Codec ID : S_TEXT/UTF8
Codec ID/Info : UTF-8 Plain Text
Duration : 3 h 4 min
Bit rate : 6 b/s
Count of elements : 199
Stream size : 8.66 KiB (0%)
Title : Forced
Language : Russian
Default : Yes
Forced : No

Text #2
ID : 6
Format : UTF-8
Codec ID : S_TEXT/UTF8
Codec ID/Info : UTF-8 Plain Text
Duration : 3 h 4 min
Bit rate : 71 b/s
Count of elements : 2034
Stream size : 96.3 KiB (0%)
Language : Russian
Default : No
Forced : No

Text #3
ID : 7
Format : UTF-8
Codec ID : S_TEXT/UTF8
Codec ID/Info : UTF-8 Plain Text
Duration : 3 h 4 min
Bit rate : 6 b/s
Count of elements : 201
Stream size : 8.74 KiB (0%)
Title : Forced
Language : Ukrainian
Default : No
Forced : No

Text #4
ID : 8
Format : UTF-8
Codec ID : S_TEXT/UTF8
Codec ID/Info : UTF-8 Plain Text
Duration : 3 h 4 min
Bit rate : 71 b/s
Count of elements : 1998
Stream size : 96.5 KiB (0%)
Language : Ukrainian
Default : No
Forced : No

Text #5
ID : 9
Format : UTF-8
Codec ID : S_TEXT/UTF8
Codec ID/Info : UTF-8 Plain Text
Duration : 2 h 27 min
Bit rate : 2 b/s
Count of elements : 119
Stream size : 3.22 KiB (0%)
Title : Forced
Language : Polish
Default : No
Forced : No

Text #6
ID : 10
Format : UTF-8
Codec ID : S_TEXT/UTF8
Codec ID/Info : UTF-8 Plain Text
Duration : 3 h 3 min
Bit rate : 56 b/s
Count of elements : 2362
Stream size : 75.5 KiB (0%)
Title : SDH
Language : Polish
Default : No
Forced : No

Text #7
ID : 11
Format : UTF-8
Codec ID : S_TEXT/UTF8
Codec ID/Info : UTF-8 Plain Text
Duration : 2 h 59 min
Bit rate : 46 b/s
Count of elements : 1940
Stream size : 60.6 KiB (0%)
Language : English
Default : No
Forced : No

Text #8
ID : 12
Format : UTF-8
Codec ID : S_TEXT/UTF8
Codec ID/Info : UTF-8 Plain Text
Duration : 2 h 59 min
Bit rate : 58 b/s
Count of elements : 2413
Stream size : 77.1 KiB (0%)
Title : SDH
Language : English
Default : No
Forced : No

Text #9
ID : 13
Format : UTF-8
Codec ID : S_TEXT/UTF8
Codec ID/Info : UTF-8 Plain Text
Duration : 3 h 4 min
Bit rate : 39 b/s
Count of elements : 1863
Stream size : 53.3 KiB (0%)
Language : German
Default : No
Forced : No

Text #10
ID : 14
Format : UTF-8
Codec ID : S_TEXT/UTF8
Codec ID/Info : UTF-8 Plain Text
Duration : 3 h 4 min
Bit rate : 68 b/s
Count of elements : 2010
Stream size : 93.0 KiB (0%)
Language : Hebrew
Default : No
Forced : No

Text #11
ID : 15
Format : UTF-8
Codec ID : S_TEXT/UTF8
Codec ID/Info : UTF-8 Plain Text
Duration : 3 h 4 min
Bit rate : 45 b/s
Count of elements : 2004
Stream size : 60.8 KiB (0%)
Language : Romanian
Default : No
Forced : No

piratbit.org



Скачать Как я полюбила гангстера через торрент https://i2.imageban.ru/out/2022/01/09/ce3d21d02d0cac32f927ea24c33ee6f5.jpg Скачать, смотреть онлайн Как я полюбила гангстера бесплантно в хорошем качестве Описание: Неизвестная женщина повествует о полном взлётов и падений пути Никодема «Никоша» Скотарчака, одного из крупнейших гангстеров в ... 10 10 4
Торрент: Зарегистрирован [2022-01-10 03:32] · скачан: 87 раз
Статус: √ проверено
Размер: 6.32 GB
Как cкачать? Как скачать Как я полюбила гангстера через торрент | UTorrent

% Раздел Тема Автор DL S | L
Фильмы 2021 [DVDrip, WEB-DLRip, HDrip] (DUB, MVO) [ 2.18 GB ] Как я полюбила гангстера / Jak pokochalam gangstera [2022 WEB-DLRip] DUB [VSI Moscow / Netflix] bober100 Скачать
10 | 1
Ultra HD (UHD: 2K, 4K, 8K) — видео сверхвысокой чёткости [ 17.75 GB ] Как я полюбила гангстера / Jak pokochalam gangstera [2022 UHD WEB-DL 2160p] DUB [VSI Moscow / Netflix] bober100 Скачать
3 | 0

28-11-2019 20:33  

Отключить всю рекламу на сайте

    Дорогой пользователь! Огромная просьба, поблагодарите релизера, оцените раздачу и оставьте свои комментарий, если Вы скачали Как я полюбила гангстера через торрент бесплатно!
    Комментировать посты могут только пользователи прошедшие не сложную регистрацию
    Показать сообщения:    

    Как я полюбила гангстера через торрент
    Скачать бесплатно Как я полюбила гангстера
    Как я полюбила гангстера скачать торрент
    Как я полюбила гангстера смотреть онлайн
    Cкачать фильм Как я полюбила гангстера бесплатно
    Как я полюбила гангстера скачать торрент в хорошем качестве
    Как я полюбила гангстера смотреть онлайн бесплатно в хорошем качестве


    Вы не можете начинать темы
    Вы не можете отвечать на сообщения
    Вы не можете редактировать свои сообщения
    Вы не можете удалять свои сообщения
    Вы не можете голосовать в опросах
    Вы не можете прикреплять файлы к сообщениям
    Вы можете скачивать файлы