Всегда рабочее зеркало без VPN и Proxy просто перед .vidak.icu напиши любое слово или цифру, Пример http://4fjd.vidak.icu

MVO

MVO

1 сезон

1

1 сезон

iTunes

1 сезон

13

1 сезон

Deluxe

pack

Рекомендуем

Repack

30

ВАЖНО

RePack

MK11

RePack

jed

RePack

fifa19

RePack

RDR2

RePack

NEED FOR SPEED™ PAYBACK

Кинопоиск HD

6 сезон

 Острые козырьки 6 сезон

Все сериалы

все сериалы на PB.wtf

RePack

FAR CRY 5
  
Magnet ссылка

Ищейка / Сезон: 6 / Серии: 1-16 из 16 (Андрей Головков) [2021, Детектив, SATRip] piratbit.org

Ищейка через торрент piratbit.org

Размер: 9.38 GB | Добавлен: 6 мес. назад | Торрент скачан:77 раз
Смотреть онлайн Ищейка | Скачать    Ребята, помогите собрать деньги на оплату серверов!!!

10-01-2022 13:17 Ищейка Скачать торрент  

Ищейка
Год выпуска: 2021
Страна: Россия
Жанр: Детектив
Продолжительность: ~ 00:50:00 серия
Перевод: Не требуется
Субтитры: отсутствуют

Режиссер: Андрей Головков



В ролях: Анна Банщикова, Александр Макогон, Владислав Павлов, Эдуард Чекмазов, Владимир Николенко, Анатолий Гущин, Ирина Пулина, Дмитрий Миллер, Денис Бургазлиев, Анатолий Кот, Александр Воеводин, Анастасия Великородная, Серафима Низовская, Дмитрий Куличков, Василий Буткевич, Антонина Комиссарова, Ирина Баринова, Татьяна Чердынцева, Кристина Юдичева, Мария Шаханова, Борис Невзоров, Максим Лагашкин, Юлия Такшина, Павел Ворожцов, Виктория Маслова, Эдуард Флёров, Полина Ауг, Максим Деричев, Герман Сегал

Описание: В спокойную и размеренную семейную жизнь главной героини врывается ее бывшая однокурсница Светлана, успешный бизнес-коуч, идеальная мать и жена. Александра начинает задумываться – а все ли в ее жизни правильно, как найти баланс между работой и личной жизнью, на своем ли месте она в отделе. Александра садится на диету, начинает заниматься спортом и йогой, но ее все равно гложут сомнения. И конечно, добавляются очередные проблемы на работе – в отдел приезжает проверка из Москвы под руководством человека, у которого с Александрой старые счеты. В семейной жизни тоже неспокойно. Борис продолжает ревновать к Иноземцеву, уверенный, что Саша его не забыла. И подозрения Бориса, похоже, не безосновательны. А тут еще мама, Маргарита Яковлевна, начинает вести себя так, словно у нее появился таинственный поклонник. И все это – прямо накануне Нового года! В общем, покой Александре только снится. Но подполковник Кушнир продолжает самоотверженно бороться за спокойную жизнь любимого Геленджика и блестяще распутывает самые сложные преступления. Ищейка всегда знает, кто настоящий убийца!

Качество: SATRip
Формат: AVI

Видео: 720x400 (16:9), 25.000 FPS, XviD, 1505 Kbps, 0.209 bit/pixel
Аудио: MP3, 48.0 KHz, 2 ch, 192 kbps
скриншот  скриншот  скриншот  скриншот  скриншот  

General
Complete name : Downloads\Ishcheika.S06.XviD.SATRip.25Kuzmich\Ishcheika.s06.e01.XviD.SATRip.25Kuzmich.avi
Format : AVI
Format/Info : Audio Video Interleave
File size : 600 MiB
Duration : 49 min 9 s
Overall bit rate : 1 707 kb/s
Writing application : VirtualDubMod 1.5.10.3 | www.virtualdub-fr.org || (build 2550/release)
Writing library : VirtualDubMod build 2550/release
Video #0
ID : 0
Format : MPEG-4 Visual
Format profile : Advanced Simple@L5
Format settings : BVOP1
Format settings, BVOP : 1
Format settings, QPel : No
Format settings, GMC : No warppoints
Format settings, Matrix : Default (MPEG)
Codec ID : XVID
Codec ID/Hint : XviD
Duration : 49 min 9 s
Bit rate : 1 505 kb/s
Width : 720 pixels
Height : 400 pixels
Display aspect ratio : 16:9
Frame rate : 25.000 FPS
Color space : YUV
Chroma subsampling : 4:2:0
Bit depth : 8 bits
Scan type : Progressive
Compression mode : Lossy
Bits/(Pixel*Frame) : 0.209
Stream size : 529 MiB (88%)
Writing library : XviD 73
Audio #1
ID : 1
Format : MPEG Audio
Format version : Version 1
Format profile : Layer 3
Format settings : Joint stereo / MS Stereo
Codec ID : 55
Codec ID/Hint : MP3
Duration : 49 min 9 s
Bit rate mode : Constant
Bit rate : 192 kb/s
Channel(s) : 2 channels
Sampling rate : 48.0 kHz
Frame rate : 41.667 FPS (1152 SPF)
Compression mode : Lossy
Stream size : 67.5 MiB (11%)
Alignment : Aligned on interleaves
Interleave, duration : 40 ms (1.00 video frame)
Interleave, preload duration : 504 ms
Writing library : LAME3.99r
Encoding settings : -m j -V 4 -q 2 -lowpass 18.6 -b 192

Раздача ведётся путём добавления новых серий, при каждом добавлении создаётся новый торрент. Чтобы начать докачку новой серии, пользователям необходимо сделать следующее:

- Остановить скачивание.
- Удалить старый торрент у себя из клиента (старые серии удалять не надо).
- Скачать новый торрент и запустить его у себя в клиенте вместо старого, при этом указать клиенту путь в старую папку куда и должно происходить скачивание новых серий.

Ваш клиент при этом должен произвести хеширование (проверку) старой папки (если не производит сам - помогите ему сделать это), и будет докачивать только те серии которых у вас ещё нет. Старые серии при этом не удаляются, а продолжают раздаваться!
Если вы уже удалили старые серии, то предотвратить повторную закачку старых серий можно, отжав галочку в соответствующих местах при запуске нового торрента. По возможности, желательно не удалять старые серии как можно дольше, чтобы релизер не столько продолжал раздавать старые серии, а смог сконцентрироваться на новых.
piratbit.org



Скачать Ищейка через торрент https://i116.fastpic.org/big/2022/0111/56/58ce800669e51d40dc607be204c9b056.jpg Скачать, смотреть онлайн Ищейка бесплантно в хорошем качестве Описание: В спокойную и размеренную семейную жизнь главной героини врывается ее бывшая однокурсница Светлана, успешный бизнес-коуч, ... 9.3 10 15
Торрент: Зарегистрирован [2022-01-27 15:42] · скачан: 77 раз
Статус: √ проверено
Размер: 9.38 GB
Как cкачать? Как скачать Ищейка через торрент | UTorrent



Последний раз редактировалось: bober100 (2022-01-27 15:42), всего редактировалось 6 раз(а)

28-11-2019 20:33  

Отключить вcю реклaмy на сайте

19-01-2022 16:27 Ищейка Скачать торрент  

хороший сериалpiratbit.org



    Дорогой пользователь! Огромная просьба, поблагодарите релизера, оцените раздачу и оставьте свои комментарий, если Вы скачали Ищейка через торрент бесплатно!
    Комментировать посты могут только пользователи прошедшие не сложную регистрацию
    Показать сообщения:    

    Ищейка через торрент
    Скачать бесплатно Ищейка
    Ищейка скачать торрент
    Ищейка смотреть онлайн
    Cкачать фильм Ищейка бесплатно
    Ищейка скачать торрент в хорошем качестве
    Ищейка смотреть онлайн бесплатно в хорошем качестве


    Вы не можете начинать темы
    Вы не можете отвечать на сообщения
    Вы не можете редактировать свои сообщения
    Вы не можете удалять свои сообщения
    Вы не можете голосовать в опросах
    Вы не можете прикреплять файлы к сообщениям
    Вы можете скачивать файлы