Всегда рабочее зеркало без VPN и Proxy просто перед .vidak.icu напиши любое слово или цифру, Пример http://9p9.vidak.icu

>

7.4

iTunes

7.4

2 сезон

6.6

iTunes

1

6.9

1 сезон

7.2

iTunes

6.0

MVO

13

6.1

iTunes

8.3

Пиратка

30

ULTIMATE

pack

9.9

Лицензия

ВАЖНО

ИГРА 18+

pack

7.3

RePack

MK11

7.7

RePack

jed

7.8

RePack

fifa19

8.5

RePack

RDR2

RePack

NEED FOR SPEED™ PAYBACK

1 сезон

9 сезон

Бесстыжие 9 сезон

Все сериалы

все сериалы на PB.wtf

RePack

FAR CRY 5

Anonymous, добрый вечер, мы катастрофически не успеваем собрать деньги на оплату серверов, помогите нам пожалуйста 5,10,15р., для нас важна любая помощь . В качестве благодарности мы отключим Вам всю рекламу на сайте (укажите свой ник в строку Ваше имя)!

×
  
Magnet ссылка

Обитель зла: Раккун-Сити / Resident Evil: Welcome to Raccoon City (Йоханнес Робертс) [2021, Ужасы, фантастика, боевик, WEB-DL 1080p] DUB [СинеЛаб СаундМикс] piratbit.org

Обитель зла: Раккун-Сити через торрент piratbit.org

Раздают: 39 [ 4 MB/s ] Качают: 3 [ 1001 KB/s ]
Размер: 6.08 GB | Добавлен: 17 д. назад | Торрент скачан:379 раз
Смотреть онлайн Обитель зла: Раккун-Сити | Скачать    Ребята, помогите собрать деньги на оплату серверов!!!

11-01-2022 01:41 Обитель зла: Раккун-Сити Скачать торрент  

Обитель зла: Раккун-Сити
Resident Evil: Welcome to Raccoon City

Год выпуска: 2021
Страна: Германия, Канада, США
Выпущено: Constantin Film, Davis Films
Жанр: Ужасы, фантастика, боевик
Продолжительность: 01:47:42
Перевод: Дублированный | СинеЛаб СаундМикс
Субтитры: Русские (Forced, full), английские, французские

Режиссер: Йоханнес Робертс

rating

В ролях: Кая Скоделарио, Ханна Джон-Кэймен, Том Хоппер, Робби Амелл, Нил МакДонаф, Эван Джогиа, Донал Лог, Аваа Блэкуэлл, Лили Гао, Марина Мазепа, Нэйтан Дэйлз, Чад Рук, Джош Круддас, Джанет Портер

Описание: Раккун Сити — город-призрак на Среднем Западе, который жизнь покинула вместе с фармацевтическим гигантом Umbrella. Однако корпорация не исчезла бесследно — на ее месте глубоко под землей зреет великое зло, которое вскоре вырвется на свободу. Нескольким выжившим предстоит узнать страшную правду о монструозной компании. «Обитель зла: Раккун Сити» — перезапуск зомби-франшизы, основанной на видеоигре Resident Evil.

Качество: WEB-DL 1080p
Формат: MKV

Видео: MPEG-4 AVC, 1920x816, 6673 Kbit/s, 23.976 fps
Аудио #01: 48 kHz, E-AC3, 5.1, 384 Kbps | Дублированный | СинеЛаб СаундМикс | RUS |
Аудио #02: 48 kHz, AC3, 5.1, 384 Kbps | Дублированный | СинеЛаб СаундМикс | RUS |
Аудио #03: 48 kHz, E-AC3, 5.1, 640 Kbps | Оригинал | ENG |
скриншот  скриншот  скриншот  скриншот  скриншот  скриншот  

General
Unique ID : 188481469898745643785423744779206095243 (0x8DCC35EF632B77FD96C21764BE85718B)
Complete name : E:VideoResident.Evil.Welcome.to.Raccoon.City.2021.WEB-DL.1080p.seleZen.mkv
Format : Matroska
Format version : Version 4
File size : 6.08 GiB
Duration : 1 h 47 min
Overall bit rate : 8 084 kb/s
Movie name : Resident Evil Welcome to Raccoon City 2021 from seleZen
Encoded date : UTC 2022-01-10 23:20:55
Writing application : mkvmerge v59.0.0 ('Shining Star') 64-bit
Writing library : libebml v1.4.2 + libmatroska v1.6.4

Video
ID : 1
Format : AVC
Format/Info : Advanced Video Codec
Format profile : High@L4
Format settings : CABAC / 4 Ref Frames
Format settings, CABAC : Yes
Format settings, Reference : 4 frames
Codec ID : V_MPEG4/ISO/AVC
Duration : 1 h 47 min
Bit rate mode : Constant
Bit rate : 6 673 kb/s
Nominal bit rate : 10 000 kb/s
Width : 1 920 pixels
Height : 816 pixels
Display aspect ratio : 2.35:1
Frame rate mode : Constant
Frame rate : 23.976 (24000/1001) FPS
Color space : YUV
Chroma subsampling : 4:2:0
Bit depth : 8 bits
Scan type : Progressive
Bits/(Pixel*Frame) : 0.178
Stream size : 5.02 GiB (83%)
Language : English
Default : Yes
Forced : No
Color range : Limited
Color primaries : BT.709
Transfer characteristics : BT.709
Matrix coefficients : BT.709

Audio #1
ID : 2
Format : E-AC-3
Format/Info : Enhanced AC-3
Commercial name : Dolby Digital Plus
Codec ID : A_EAC3
Duration : 1 h 47 min
Bit rate mode : Constant
Bit rate : 384 kb/s
Channel(s) : 6 channels
Channel layout : L R C LFE Ls Rs
Sampling rate : 48.0 kHz
Frame rate : 31.250 FPS (1536 SPF)
Compression mode : Lossy
Stream size : 296 MiB (5%)
Title : Dub
Language : Russian
Service kind : Complete Main
Default : Yes
Forced : Yes

Audio #2
ID : 3
Format : AC-3
Format/Info : Audio Coding 3
Commercial name : Dolby Digital
Codec ID : A_AC3
Duration : 1 h 47 min
Bit rate mode : Constant
Bit rate : 384 kb/s
Channel(s) : 6 channels
Channel layout : L R C LFE Ls Rs
Sampling rate : 48.0 kHz
Frame rate : 31.250 FPS (1536 SPF)
Compression mode : Lossy
Stream size : 296 MiB (5%)
Title : Dub
Language : Russian
Service kind : Complete Main
Default : No
Forced : No

Audio #3
ID : 4
Format : E-AC-3
Format/Info : Enhanced AC-3
Commercial name : Dolby Digital Plus
Codec ID : A_EAC3
Duration : 1 h 47 min
Bit rate mode : Constant
Bit rate : 640 kb/s
Channel(s) : 6 channels
Channel layout : L R C LFE Ls Rs
Sampling rate : 48.0 kHz
Frame rate : 31.250 FPS (1536 SPF)
Compression mode : Lossy
Stream size : 493 MiB (8%)
Title : Original
Language : English
Service kind : Complete Main
Default : No
Forced : No

Text #1
ID : 5
Format : UTF-8
Codec ID : S_TEXT/UTF8
Codec ID/Info : UTF-8 Plain Text
Duration : 1 h 39 min
Bit rate : 1 b/s
Count of elements : 32
Stream size : 1.30 KiB (0%)
Title : Forced
Language : Russian
Default : Yes
Forced : Yes

Text #2
ID : 6
Format : UTF-8
Codec ID : S_TEXT/UTF8
Codec ID/Info : UTF-8 Plain Text
Duration : 1 h 46 min
Bit rate : 46 b/s
Count of elements : 847
Stream size : 36.2 KiB (0%)
Title : Full
Language : Russian
Default : No
Forced : No

Text #3
ID : 7
Format : UTF-8
Codec ID : S_TEXT/UTF8
Codec ID/Info : UTF-8 Plain Text
Duration : 1 h 46 min
Bit rate : 40 b/s
Count of elements : 1437
Stream size : 31.7 KiB (0%)
Title : Full
Language : English
Default : No
Forced : No

Text #4
ID : 8
Format : UTF-8
Codec ID : S_TEXT/UTF8
Codec ID/Info : UTF-8 Plain Text
Duration : 1 h 46 min
Bit rate : 44 b/s
Count of elements : 1473
Stream size : 34.5 KiB (0%)
Title : SDH
Language : English
Default : No
Forced : No

Text #5
ID : 9
Format : UTF-8
Codec ID : S_TEXT/UTF8
Codec ID/Info : UTF-8 Plain Text
Duration : 1 h 30 min
Bit rate : 1 b/s
Count of elements : 30
Stream size : 795 Bytes (0%)
Title : French (Canada)
Language : French
Default : No
Forced : No

Menu
00:00:00.000 : Studio Logo
00:00:56.000 : Opening Credits
00:01:08.000 : Scene 3
00:05:12.000 : Scene 4
00:06:29.000 : Scene 5
00:06:32.000 : Scene 6
00:15:09.000 : Scene 7
00:20:09.000 : Scene 8
00:26:16.000 : Scene 9
00:38:00.000 : Scene 10
00:41:24.000 : Scene 11
00:51:51.000 : Scene 12
00:59:22.000 : Scene 13
01:07:39.000 : Scene 14
01:13:20.000 : Scene 15
01:16:22.000 : Scene 16
01:16:48.000 : Scene 17
01:19:17.000 : Scene 18
01:19:34.000 : Scene 19
01:20:46.000 : Scene 20
01:24:11.000 : Scene 21
01:28:44.000 : Scene 22
01:34:00.000 : Scene 23
01:35:17.000 : Scene 24
01:39:29.000 : Scene 25
01:41:06.000 : End Credits

piratbit.org



Скачать Обитель зла: Раккун-Сити через торрент https://i116.fastpic.org/big/2022/0111/eb/f36af1453fcf3a2fb9586b44ee0e51eb.jpg Скачать, смотреть онлайн Обитель зла: Раккун-Сити бесплантно в хорошем качестве Описание: Раккун Сити — город-призрак на Среднем Западе, который жизнь покинула вместе с фармацевтическим гигантом Umbrella. Однако ... 9.6 10 18
Торрент: Зарегистрирован [2022-01-11 01:41] · скачан: 379 раз
Статус: √ проверено
Размер: 6.08 GB
Как cкачать? Как скачать Обитель зла: Раккун-Сити через торрент | UTorrent

% Раздел Тема Автор DL S | L
Ultra HD (UHD: 2K, 4K, 8K) — видео сверхвысокой чёткости [ 12 GB ] Обитель зла: Раккун-Сити / Resident Evil: Welcome to Raccoon City [2021 UHD WEB-DL-HEVC 2160p] DUB [СинеЛаб СаундМикс] bober100 Скачать
11 | 1
Фильмы 2021 [DVDrip, WEB-DLRip, HDrip] (DUB, MVO) [ 1.46 GB ] Обитель зла: Раккун-Сити / Resident Evil: Welcome to Raccoon City [2021 WEB-DLRip] - [СинеЛаб СаундМикс] Twi7ter Скачать
202 | 27
Фильмы 2021 [DVDrip, WEB-DLRip, HDrip] (DUB, MVO) [ 1.45 GB ] Обитель зла: Раккун-Сити / Resident Evil: Welcome to Raccoon City [2021 WEB-DLRip-AVC] DUB [СинеЛаб СаундМикс] Russian Mafia Скачать
7 | 0
Ultra HD (UHD: 2K, 4K, 8K) — видео сверхвысокой чёткости [ 11.76 GB ] Обитель зла: Раккун-Сити / Resident Evil: Welcome to Raccoon City [2021 UHD WEB-DL 2160p] MVO [Jaskier] bober100 Скачать
71 | 2
Фильмы 2021 [DVDrip, WEB-DLRip, HDrip] (DUB, MVO) [ 1.46 GB ] Обитель зла: Раккун-Сити / Resident Evil: Welcome to Raccoon City [2021 WEB-DLRip] DUB [СинеЛаб СаундМикс] bober100 Скачать
7 | 0
Фильмы (WEB-DL 720p, 1080p) [ 5.84 GB ] Обитель зла: Раккун-Сити / Resident Evil: Welcome to Raccoon City [2021 WEB-DL 1080p] MVO [Jaskier] bober100 Скачать
41 | 0
Фильмы 2021 [DVDrip, WEB-DLRip, HDrip] (DUB, MVO) [ 1.83 GB ] Обитель зла: Раккун-Сити / Resident Evil: Welcome to Raccoon City [2021 WEB-DLRip-AVC] MVO [Jaskier] от ExKinoRay Lithuania Скачать
19 | 0

28-11-2019 20:33  

Отключить всю рекламу на сайте

11-01-2022 04:22 Обитель зла: Раккун-Сити Скачать торрент  

Обитель латиносов.piratbit.org



11-01-2022 10:03 Обитель зла: Раккун-Сити Скачать торрент  

БОГАТЫРЬ писал(а):

Обитель латиносов.

piratbit.org



11-01-2022 10:09 Обитель зла: Раккун-Сити Скачать торрент  

Странно что Леона не играет черная феминистка!piratbit.org



11-01-2022 10:11 Обитель зла: Раккун-Сити Скачать торрент  

Да ладно, неплохой фильм получился, уж лучше 4,5,6 частей Обителя Милки)))piratbit.org



11-01-2022 13:26 Обитель зла: Раккун-Сити Скачать торрент  

GNOM39 писал(а):

Странно что Леона не играет черная феминистка!

piratbit.org



11-01-2022 15:17 Обитель зла: Раккун-Сити Скачать торрент  

tirion stark писал(а):

Да ладно, неплохой фильм получился, уж лучше 4,5,6 частей Обителя Милки)))

100%!!!piratbit.org



11-01-2022 16:14 Обитель зла: Раккун-Сити Скачать торрент  

Лично я жду Resident Evil: Kolyma Calling. Вроде в 2042 будет. Может доживу.piratbit.org



11-01-2022 18:09 Обитель зла: Раккун-Сити Скачать торрент  

фильм то хорош , мне понравился piratbit.org



16-01-2022 12:11 Обитель зла: Раккун-Сити Скачать торрент  

отличное кинцо, под пивко вообще суперpiratbit.org



    Дорогой пользователь! Огромная просьба, поблагодарите релизера, оцените раздачу и оставьте свои комментарий, если Вы скачали Обитель зла: Раккун-Сити через торрент бесплатно!
    Комментировать посты могут только пользователи прошедшие не сложную регистрацию
    Показать сообщения:    

    Обитель зла: Раккун-Сити через торрент
    Скачать бесплатно Обитель зла: Раккун-Сити
    Обитель зла: Раккун-Сити скачать торрент
    Обитель зла: Раккун-Сити смотреть онлайн
    Cкачать фильм Обитель зла: Раккун-Сити бесплатно
    Обитель зла: Раккун-Сити скачать торрент в хорошем качестве
    Обитель зла: Раккун-Сити смотреть онлайн бесплатно в хорошем качестве


    Вы не можете начинать темы
    Вы не можете отвечать на сообщения
    Вы не можете редактировать свои сообщения
    Вы не можете удалять свои сообщения
    Вы не можете голосовать в опросах
    Вы не можете прикреплять файлы к сообщениям
    Вы можете скачивать файлы