Всегда рабочее зеркало без VPN и Proxy просто перед .vidak.icu напиши любое слово или цифру, Пример http://cow.vidak.icu

>

7.4

iTunes

7.4

2 сезон

6.6

iTunes

1

6.9

1 сезон

7.2

iTunes

6.0

MVO

13

6.1

iTunes

8.3

Пиратка

30

ULTIMATE

pack

9.9

Лицензия

ВАЖНО

ИГРА 18+

pack

7.3

RePack

MK11

7.7

RePack

jed

7.8

RePack

fifa19

8.5

RePack

RDR2

RePack

NEED FOR SPEED™ PAYBACK

1 сезон

9 сезон

Бесстыжие 9 сезон

Все сериалы

все сериалы на PB.wtf

RePack

FAR CRY 5

Anonymous, добрый вечер, мы катастрофически не успеваем собрать деньги на оплату серверов, помогите нам пожалуйста 5,10,15р., для нас важна любая помощь . В качестве благодарности мы отключим Вам всю рекламу на сайте (укажите свой ник в строку Ваше имя)!

×
  
Magnet ссылка

Проклятие пиковой дамы / Queen of Spades (Патрик Уайт) [2021, Ужасы, BDRip 1080p] DUB [iTunes] piratbit.org

Проклятие пиковой дамы через торрент piratbit.org

Раздают: 3 [ 442 KB/s ]
Размер: 7.1 GB | Добавлен: 17 д. назад | Торрент скачан:76 раз
Смотреть онлайн Проклятие пиковой дамы | Скачать    Ребята, помогите собрать деньги на оплату серверов!!!

11-01-2022 09:21 Проклятие пиковой дамы Скачать торрент  

Проклятие пиковой дамы | Queen of Spades
Год выпуска: 2021
Страна: Канада
Производство: 1984 Pictures, levelFILM
Жанр: Ужасы
Продолжительность: 01:32:15
Перевод: Дублированный | iTunes
Субтитры: Русские (форсированные), английские (полные)

Режиссер: Патрик Уайт

rating

В ролях: Ава Престон, Дэниэл Кэш, Эрик Осборн, Джэми Блох, Кэйлен Ом, Набил Рахо, Криста Маршан, Микаэль Конде, Генри Квок, Мишель ЛеБланк

Описание: Из-за того что мама всё время на работе, 13-летняя Анна проводит много времени со своей бебиситтершей и её приятелями. Однажды компания становится свидетелем страшного случая и после решает проверить правдивость старинной русской легенды о пиковой даме. Ребята уговаривают Анну провести ритуал со свечой и зеркалом, и когда злобная сущность начинает сильно портить им жизнь, они обращаются за помощью к русскому эмигранту, написавшему книгу о пиковой даме.

Качество: BDRip 1080p
Формат: MKV

Видео: 1920x804 (2.40:1), 23.976 fps, MPEG-4 AVC ~ 10 000 Kbps avg, 0.270 bit/pixel
Аудио: AC3, 48 kHz, 6 ch, ~384.00 kbps avg | русский | DUB
Аудио: AC3, 48 kHz, 6 ch, ~640.00 kbps avg | английский |
скриншот  скриншот  скриншот  скриншот  скриншот  

Общее
Уникальный идентификатор : 207177662695016320890219855759944613898 (0x9BDCF76890082697848F395FBAFA800A)
Полное имя : Queen.of.Spades.2021.1080p.BluRay.DD.5.1.x264.MegaPeer.mkv
Формат : Matroska
Версия формата : Version 4
Размер файла : 7,10 Гбайт
Продолжительность : 1 ч. 32 м.
Общий поток : 11,0 Мбит/сек
Название фильма : Проклятие пиковой дамы / Queen of Spades (2021) от stillet@MegaPeer
Дата кодирования : UTC 2022-01-11 05:31:41
Программа кодирования : mkvmerge v15.0.0 ('Duel with the Devil') 64-bit
Библиотека кодирования : libebml v1.3.5 + libmatroska v1.4.5
Обложка : Yes
Attachments : cover.jpg

Видео
Идентификатор : 1
Формат : AVC
Формат/Информация : Advanced Video Codec
Профиль формата : High@L4.1
Настройки формата : CABAC / 5 Ref Frames
Параметр CABAC формата : Да
Параметр RefFrames формата : 5 кадров
Идентификатор кодека : V_MPEG4/ISO/AVC
Продолжительность : 1 ч. 32 м.
Битрейт : 10 000 Кбит/сек
Ширина : 1 920 пикселей
Высота : 804 пикселя
Соотношение сторон : 2,40:1
Режим частоты кадров : Постоянный
Частота кадров : 23,976 кадра/сек
Цветовое пространство : YUV
Субдискретизация насыщенности : 4:2:0
Битовая глубина : 8 бит
Тип развёртки : Прогрессивная
Бит/(Пиксели*Кадры) : 0.270
Размер потока : 6,44 Гбайт (91%)
Заголовок : stillet@MegaPeer
Библиотека кодирования : x264 core 161 r3018 db0d417
Настройки программы : cabac=1 / ref=5 / deblock=1:-3:-3 / analyse=0x3:0x113 / me=umh / subme=10 / psy=1 / psy_rd=1.00:0.00 / mixed_ref=1 / me_range=48 / chroma_me=1 / trellis=2 / 8x8dct=1 / cqm=0 / deadzone=21,11 / fast_pskip=0 / chroma_qp_offset=-2 / threads=12 / lookahead_threads=3 / sliced_threads=0 / nr=0 / decimate=0 / interlaced=0 / bluray_compat=0 / constrained_intra=0 / bframes=12 / b_pyramid=2 / b_adapt=2 / b_bias=0 / direct=3 / weightb=1 / open_gop=0 / weightp=2 / keyint=240 / keyint_min=24 / scenecut=40 / intra_refresh=0 / rc_lookahead=40 / rc=2pass / mbtree=0 / bitrate=10000 / ratetol=1.0 / qcomp=0.60 / qpmin=0 / qpmax=69 / qpstep=4 / cplxblur=20.0 / qblur=0.5 / vbv_maxrate=50000 / vbv_bufsize=62500 / nal_hrd=none / filler=0 / ip_ratio=1.40 / pb_ratio=1.30 / aq=1:1.10
Язык : German
Default : Да
Forced : Нет

Аудио #1
Идентификатор : 2
Формат : AC-3
Формат/Информация : Audio Coding 3
Коммерческое название : Dolby Digital
Идентификатор кодека : A_AC3
Продолжительность : 1 ч. 32 м.
Вид битрейта : Постоянный
Битрейт : 384 Кбит/сек
Каналы : 6 каналов
Channel layout : L R C LFE Ls Rs
Частота : 48,0 КГц
Частота кадров : 31,250 кадров/сек (1536 SPF)
Метод сжатия : С потерями
Размер потока : 253 Мбайт (3%)
Заголовок : DUB | iTunes
Язык : Russian
Service kind : Complete Main
Default : Да
Forced : Нет

Аудио #2
Идентификатор : 3
Формат : AC-3
Формат/Информация : Audio Coding 3
Коммерческое название : Dolby Digital
Идентификатор кодека : A_AC3
Продолжительность : 1 ч. 32 м.
Вид битрейта : Постоянный
Битрейт : 640 Кбит/сек
Каналы : 6 каналов
Channel layout : L R C LFE Ls Rs
Частота : 48,0 КГц
Частота кадров : 31,250 кадров/сек (1536 SPF)
Метод сжатия : С потерями
Размер потока : 422 Мбайт (6%)
Язык : English
Service kind : Complete Main
Default : Нет
Forced : Нет

Текст #1
Идентификатор : 4
Формат : UTF-8
Идентификатор кодека : S_TEXT/UTF8
Идентификатор кодека/Информация : UTF-8 Plain Text
Продолжительность : 1 ч. 28 м.
Битрейт : 1 бит/сек
Count of elements : 28
Размер потока : 1,13 Кбайт (0%)
Заголовок : Forced
Язык : Russian
Default : Да
Forced : Нет

Текст #2
Идентификатор : 5
Формат : UTF-8
Идентификатор кодека : S_TEXT/UTF8
Идентификатор кодека/Информация : UTF-8 Plain Text
Продолжительность : 1 ч. 29 м.
Битрейт : 39 бит/сек
Count of elements : 1116
Размер потока : 25,7 Кбайт (0%)
Заголовок : Full
Язык : English
Default : Нет
Forced : Нет

Меню
00:00:00.000 : :ger: 01
00:04:07.705 : :ger: 02
00:13:50.328 : :ger: 03
00:26:16.074 : :ger: 04
00:34:41.954 : :ger: 05
00:40:08.864 : :ger: 06
00:48:20.021 : :ger: 07
00:53:43.844 : :ger: 08
01:01:49.079 : :ger: 09
01:06:42.998 : :ger: 10
01:17:12.085 : :ger: 11
01:30:02.354 : :ger: 12
01:32:15.195 : :ger: 13

piratbit.org



Скачать Проклятие пиковой дамы через торрент https://i116.fastpic.org/big/2022/0109/04/4272dfbf809655b73bd24f15d81d2404.jpg Скачать, смотреть онлайн Проклятие пиковой дамы бесплантно в хорошем качестве Описание: Из-за того что мама всё время на работе, 13-летняя Анна проводит много времени со своей бебиситтершей и её приятелями. Однажды ... 10 10 5
Торрент: Зарегистрирован [2022-01-11 09:21] · скачан: 76 раз
Статус: √ проверено
Размер: 7.1 GB
Как cкачать? Как скачать Проклятие пиковой дамы через торрент | UTorrent

% Раздел Тема Автор DL S | L
Фильмы 2021 [DVDrip, WEB-DLRip, HDrip] (DUB, MVO) [ 1.5 GB ] Проклятие пиковой дамы / Queen of Spades [2021 HDRip-AVC] от ExKinoRay Lithuania Скачать
3 | 0
Фильмы 2021 [DVDrip, WEB-DLRip, HDrip] (DUB, MVO) [ 746 MB ] Проклятие пиковой дамы / Queen of Spades [2021 BDRip] bober100 Скачать
2 | 0
Фильмы [HD 720p, 1080p] (Хороший звук DUB, MVO) [ 3.24 GB ] Проклятие пиковой дамы / Queen of Spades [2021 BDRip 720p] bober100 Скачать
2 | 0
Фильмы 2021 [DVDrip, WEB-DLRip, HDrip] (DUB, MVO) [ 1.42 GB ] Проклятие пиковой дамы / Queen of Spades [2021 BDRip] bober100 Скачать
4 | 0
Фильмы (WEB-DL 720p, 1080p) [ 4.81 GB ] Проклятие пиковой дамы / Queen of Spades [2021 WEB-DL 1080p] bober100 Скачать
4 | 0

28-11-2019 20:33  

Отключить всю рекламу на сайте

    Дорогой пользователь! Огромная просьба, поблагодарите релизера, оцените раздачу и оставьте свои комментарий, если Вы скачали Проклятие пиковой дамы через торрент бесплатно!
    Комментировать посты могут только пользователи прошедшие не сложную регистрацию
    Показать сообщения:    

    Проклятие пиковой дамы через торрент
    Скачать бесплатно Проклятие пиковой дамы
    Проклятие пиковой дамы скачать торрент
    Проклятие пиковой дамы смотреть онлайн
    Cкачать фильм Проклятие пиковой дамы бесплатно
    Проклятие пиковой дамы скачать торрент в хорошем качестве
    Проклятие пиковой дамы смотреть онлайн бесплатно в хорошем качестве


    Вы не можете начинать темы
    Вы не можете отвечать на сообщения
    Вы не можете редактировать свои сообщения
    Вы не можете удалять свои сообщения
    Вы не можете голосовать в опросах
    Вы не можете прикреплять файлы к сообщениям
    Вы можете скачивать файлы