Всегда рабочее зеркало без VPN и Proxy просто перед .vidak.icu напиши любое слово или цифру, Пример http://22l.vidak.icu

>

7.4

iTunes

7.4

2 сезон

6.6

iTunes

1

6.9

1 сезон

7.2

iTunes

6.0

MVO

13

6.1

iTunes

8.3

Пиратка

30

ULTIMATE

pack

9.9

Лицензия

ВАЖНО

ИГРА 18+

pack

7.3

RePack

MK11

7.7

RePack

jed

7.8

RePack

fifa19

8.5

RePack

RDR2

RePack

NEED FOR SPEED™ PAYBACK

1 сезон

9 сезон

Бесстыжие 9 сезон

Все сериалы

все сериалы на PB.wtf

RePack

FAR CRY 5

Anonymous, добрый вечер, мы катастрофически не успеваем собрать деньги на оплату серверов, помогите нам пожалуйста 5,10,15р., для нас важна любая помощь . В качестве благодарности мы отключим Вам всю рекламу на сайте (укажите свой ник в строку Ваше имя)!

×
  
Magnet ссылка

Семейка Аддамс: Горящий тур / The Addams Family 2 (Грег Тирнан, Конрад Вернон, Лаура Бруссо) [2021, Мультфильм, ужасы, фэнтези, комедия, приключения, семейный, BD Remux 1080p] DUB [iTunes] piratbit.org

Семейка Аддамс: Горящий тур через торрент piratbit.org

Раздают: 3 [ 91 KB/s ]
Размер: 21.48 GB | Добавлен: 17 д. назад | Торрент скачан:20 раз
Смотреть онлайн Семейка Аддамс: Горящий тур | Скачать    Ребята, помогите собрать деньги на оплату серверов!!!

11-01-2022 12:31 Семейка Аддамс: Горящий тур Скачать торрент  

Семейка Аддамс: Горящий тур
The Addams Family 2

Год выпуска: 2021
Страна: США, Канада
Студия: BermanBraun, Bron Creative, Bron Studios, Cinesite Animation, Creative Wealth Media Finance, Glickmania, Metro-Goldwyn-Mayer (MGM)
Жанр: Мультфильм, ужасы, фэнтези, комедия, приключения, семейный
Продолжительность: 01:32:45
Перевод: Дублированный | iTunes
Субтитры: Русские (Forced, full), английские

Режиссер: Грег Тирнан, Конрад Вернон, Лаура Бруссо

rating

В ролях: Оскар Айзек, Шарлиз Терон, Хлоя Грейс Морец, Джейвон Уолтон, Ник Кролл, Снуп Догг, Бетт Мидлер, Конрад Вернон, Билл Хейдер, Уоллес Шоун

Описание: Мортиша и Гомес в ужасе от того, как быстро растут их дети, которые все чаще пропускают семейные обеды, предпочитая этому куда более леденящие кровь занятия. Поэтому родители решают взять Венсди, Пагсли и дядю Фестера в не слишком счастливую совместную поездку на своем призрачном кемпере. Что может пойти не так в этом странном путешествии семейки Аддамс?

Качество: BD Remux 1080p
Формат: MKV

Видео: MPEG-4 AVC, 1920x1080, 27.8 Mbit/s, 23.976 fps
Аудио #01: 48 kHz, AC3, 5.1, 384 Kbps | Дублированный | iTunes | RUS |
Аудио #02: 48 kHz, DTS-HD MA, 7.1, 4855 Kbps | Оригинал | ENG |
скриншот  скриншот  скриншот  

скриншот  скриншот  скриншот  

General
Unique ID : 336448251352011435178108956608268545032 (0xFD1D9381F1F7D72DB84CE4BA942F2C08)
Complete name : E:VideoThe.Addams.Family.2.2021.BDREMUX.1080p.seleZen.mkv
Format : Matroska
Format version : Version 4
File size : 21.5 GiB
Duration : 1 h 33 min
Overall bit rate mode : Variable
Overall bit rate : 33.0 Mb/s
Movie name : The Addams Family 2 2021 from seleZen
Encoded date : UTC 2022-01-11 12:13:16
Writing application : mkvmerge v59.0.0 ('Shining Star') 64-bit
Writing library : libebml v1.4.2 + libmatroska v1.6.4

Video
ID : 1
ID in the original source m : 4113 (0x1011)
Format : AVC
Format/Info : Advanced Video Codec
Format profile : High@L4.1
Format settings : CABAC / 4 Ref Frames
Format settings, CABAC : Yes
Format settings, Reference : 4 frames
Codec ID : V_MPEG4/ISO/AVC
Duration : 1 h 33 min
Bit rate mode : Variable
Bit rate : 27.8 Mb/s
Maximum bit rate : 31.5 Mb/s
Width : 1 920 pixels
Height : 1 080 pixels
Display aspect ratio : 16:9
Frame rate mode : Constant
Frame rate : 23.976 (24000/1001) FPS
Color space : YUV
Chroma subsampling : 4:2:0
Bit depth : 8 bits
Scan type : Progressive
Bits/(Pixel*Frame) : 0.559
Stream size : 18.1 GiB (84%)
Language : English
Default : Yes
Forced : No
Original source medium : Blu-ray

Audio #1
ID : 2
Format : AC-3
Format/Info : Audio Coding 3
Commercial name : Dolby Digital
Codec ID : A_AC3
Duration : 1 h 33 min
Bit rate mode : Constant
Bit rate : 384 kb/s
Channel(s) : 6 channels
Channel layout : L R C LFE Ls Rs
Sampling rate : 48.0 kHz
Frame rate : 31.250 FPS (1536 SPF)
Compression mode : Lossy
Stream size : 256 MiB (1%)
Title : iTunes
Language : Russian
Service kind : Complete Main
Default : Yes
Forced : Yes

Audio #2
ID : 3
ID in the original source m : 4352 (0x1100)
Format : DTS XLL
Format/Info : Digital Theater Systems
Commercial name : DTS-HD Master Audio
Codec ID : A_DTS
Duration : 1 h 33 min
Bit rate mode : Variable
Bit rate : 4 855 kb/s
Channel(s) : 8 channels
Channel layout : C L R LFE Lb Rb Lss Rss
Sampling rate : 48.0 kHz
Frame rate : 93.750 FPS (512 SPF)
Bit depth : 24 bits
Compression mode : Lossless
Stream size : 3.16 GiB (15%)
Title : Original
Language : English
Default : No
Forced : No
Original source medium : Blu-ray

Text #1
ID : 4
Format : UTF-8
Codec ID : S_TEXT/UTF8
Codec ID/Info : UTF-8 Plain Text
Duration : 1 h 25 min
Bit rate : 2 b/s
Count of elements : 45
Stream size : 1.52 KiB (0%)
Title : Forced
Language : Russian
Default : Yes
Forced : Yes

Text #2
ID : 5
Format : UTF-8
Codec ID : S_TEXT/UTF8
Codec ID/Info : UTF-8 Plain Text
Duration : 1 h 25 min
Bit rate : 96 b/s
Count of elements : 1211
Stream size : 60.3 KiB (0%)
Title : Full
Language : Russian
Default : No
Forced : No

Text #3
ID : 6
Format : UTF-8
Codec ID : S_TEXT/UTF8
Codec ID/Info : UTF-8 Plain Text
Duration : 1 h 27 min
Bit rate : 56 b/s
Count of elements : 1437
Stream size : 36.1 KiB (0%)
Title : Full
Language : English
Default : No
Forced : No

Text #4
ID : 7
Format : UTF-8
Codec ID : S_TEXT/UTF8
Codec ID/Info : UTF-8 Plain Text
Duration : 1 h 27 min
Bit rate : 80 b/s
Count of elements : 1870
Stream size : 51.8 KiB (0%)
Title : SDH
Language : English
Default : No
Forced : No

Menu
00:00:00.000 : Chapter 01
00:04:42.949 : Chapter 02
00:11:00.910 : Chapter 03
00:16:42.668 : Chapter 04
00:22:17.878 : Chapter 05
00:24:10.031 : Chapter 06
00:28:25.370 : Chapter 07
00:32:21.856 : Chapter 08
00:39:13.476 : Chapter 09
00:44:52.022 : Chapter 10
00:49:14.451 : Chapter 11
00:53:32.876 : Chapter 12
00:57:02.377 : Chapter 13
01:01:36.442 : Chapter 14
01:05:21.500 : Chapter 15
01:11:36.959 : Chapter 16
01:14:29.715 : Chapter 17
01:20:06.051 : Chapter 18
01:23:16.032 : Chapter 19
01:26:39.402 : Chapter 20

piratbit.org



Скачать Семейка Аддамс: Горящий тур через торрент https://i6.imageban.ru/out/2022/01/11/45ba6332ece22ca60b33f5c3bb6e6603.png Скачать, смотреть онлайн Семейка Аддамс: Горящий тур бесплантно в хорошем качестве Описание: Мортиша и Гомес в ужасе от того, как быстро растут их дети, которые все чаще пропускают семейные обеды, предпочитая этому куда ... 10 10 5
Торрент: Зарегистрирован [2022-01-11 12:31] · скачан: 20 раз
Статус: √ проверено
Размер: 21.48 GB
Как cкачать? Как скачать Семейка Аддамс: Горящий тур через торрент | UTorrent

% Раздел Тема Автор DL S | L
Иностранные мультфильмы [ 748 MB ] Семейка Аддамс: Горящий тур / The Addams Family 2 [2021 Мультфильм WEB-DLRip] bober100 Скачать
2 | 0
Иностранные мультфильмы [ 1.45 GB ] Семейка Аддамс: Горящий тур / The Addams Family 2 [2021 Мультфильм HDRip-AVC] bober100 Скачать
7 | 0
Зарубежные Мультфильмы (BDRip 1080p, 720p, Blu-ray, BD-Remux) [ 3.43 GB ] Семейка Аддамс: Горящий тур / The Addams Family 2 [2021 Мультфильм BDRip 720p] bober100 Скачать
16 | 0
Зарубежные Мультфильмы (BDRip 1080p, 720p, Blu-ray, BD-Remux) [ 8.7 GB ] Семейка Аддамс: Горящий тур / The Addams Family 2 [2021 Мультфильм BDRip 1080p] bober100 Скачать
14 | 0
Иностранные мультфильмы [ 1.8 GB ] Семейка Аддамс: Горящий тур / The Addams Family 2 [2021 Мультфильм BDRip-AVC] DUB [ ] от ExKinoRay Lithuania Скачать
2 | 0
Иностранные мультфильмы [ 1.42 GB ] Семейка Аддамс: Горящий тур / The Addams Family 2 [2021 Мультфильм BDRip] - Twi7ter Скачать
86 | 10
Иностранные мультфильмы [ 1.42 GB ] Семейка Аддамс: Горящий тур / The Addams Family 2 [2021 Мультфильм BDRip] bober100 Скачать
5 | 0

28-11-2019 20:33  

Отключить всю рекламу на сайте

    Дорогой пользователь! Огромная просьба, поблагодарите релизера, оцените раздачу и оставьте свои комментарий, если Вы скачали Семейка Аддамс: Горящий тур через торрент бесплатно!
    Комментировать посты могут только пользователи прошедшие не сложную регистрацию
    Показать сообщения:    

    Семейка Аддамс: Горящий тур через торрент
    Скачать бесплатно Семейка Аддамс: Горящий тур
    Семейка Аддамс: Горящий тур скачать торрент
    Семейка Аддамс: Горящий тур смотреть онлайн
    Cкачать фильм Семейка Аддамс: Горящий тур бесплатно
    Семейка Аддамс: Горящий тур скачать торрент в хорошем качестве
    Семейка Аддамс: Горящий тур смотреть онлайн бесплатно в хорошем качестве


    Вы не можете начинать темы
    Вы не можете отвечать на сообщения
    Вы не можете редактировать свои сообщения
    Вы не можете удалять свои сообщения
    Вы не можете голосовать в опросах
    Вы не можете прикреплять файлы к сообщениям
    Вы можете скачивать файлы