Всегда рабочее зеркало без VPN и Proxy просто перед .vidak.icu напиши любое слово или цифру, Пример http://dyv.vidak.icu

>

7.4

iTunes

7.4

2 сезон

6.6

iTunes

1

6.9

1 сезон

7.2

iTunes

6.0

MVO

13

6.1

iTunes

8.3

Пиратка

30

ULTIMATE

pack

9.9

Лицензия

ВАЖНО

ИГРА 18+

pack

7.3

RePack

MK11

7.7

RePack

jed

7.8

RePack

fifa19

8.5

RePack

RDR2

RePack

NEED FOR SPEED™ PAYBACK

1 сезон

9 сезон

Бесстыжие 9 сезон

Все сериалы

все сериалы на PB.wtf

RePack

FAR CRY 5

Anonymous, добрый вечер, мы катастрофически не успеваем собрать деньги на оплату серверов, помогите нам пожалуйста 5,10,15р., для нас важна любая помощь . В качестве благодарности мы отключим Вам всю рекламу на сайте (укажите свой ник в строку Ваше имя)!

×
  
Magnet ссылка

Черный ящик / Boîte noire (Ян Гозлан) [2021, Триллер, драма, детектив, BDRip 720p] MVO [@MUZOBOZ@] piratbit.org

Черный ящик через торрент piratbit.org

Раздают: 28 [ 2 MB/s ] Качают: 2 [ 0 KB/s ]
Размер: 3.11 GB | Добавлен: 1 д. 23 ч. назад | Торрент скачан:88 раз
Смотреть онлайн Черный ящик | Скачать    Ребята, помогите собрать деньги на оплату серверов!!!

11-01-2022 18:57 Черный ящик Скачать торрент  

Черный ящик
Boîte noire

Год выпуска: 2021
Страна: Франция, Бельгия
Выпущено: Wy Productions, 2425 Films, StudioCanal
Жанр: Триллер, драма, детектив
Продолжительность: 02:04:23
Перевод: Любительский (многоголосый) | @MUZOBOZ@
Субтитры: отсутствуют

Режиссер: Ян Гозлан

rating


В ролях: Пьер Нинэ, Лу де Лааж, Андре Дюссолье, Себастьен Пудеру, Оливье Рабурден, Гийом Марке, Мехди Джаади, Энн Азулай, Орельен Рекуан, Грегори Деранжер

Описание: Крушение новейшего авиалайнера уносит жизни сотен людей. Пролить свет на причины катастрофы может только расшифровка чёрного ящика. Расследование возглавляет талантливый и эксцентричный аналитик Матьё с уникальным слухом. Чем дальше он продвигается на своем пути, тем больше обнаруживает подозрительных обстоятельств. Но никто не верит Матьё. Так может это всего лишь изощрённые игры его разума?

Качество: BDRip 720p
Формат: MKV

Видео: MPEG-4 AVC/H.264, 3220 Кбит/сек, 1280x534
Аудио #1: Русский: AC3, 2 ch, 192 Кбит/сек
Аудио #2: Французский: AC3, 2 ch, 192 Кбит/сек

Общее
Уникальный идентификатор : 185319093446142612380587258568191668075 (0x8B6B28BCF87805C2F4DEE44DD94E6F6B)
Полное имя : F:1.ФИЛЬМЫ1. ФИЛЬМЫЧерный ящик Boite noire Black Box (2021)Chornyy yashchik Boite noire Black Box (2021) BDRip 720p.mkv
Формат : Matroska
Версия формата : Version 4
Размер файла : 3,11 Гбайт
Продолжительность : 2 ч. 4 м.
Общий поток : 3 585 Кбит/сек
Программа кодирования : Lavf
Библиотека кодирования : Lavf
Авторское право : *=#=*
ErrorDetectionType : Per level 1
Attachments : poster.png
Язык : und

Видео
Идентификатор : 1
Формат : AVC
Формат/Информация : Advanced Video Codec
Профиль формата : High@L4.1
Настройки формата : CABAC / 12 Ref Frames
Параметр CABAC формата : Да
Параметр RefFrames формата : 12 кадров
Идентификатор кодека : V_MPEG4/ISO/AVC
Продолжительность : 2 ч. 4 м.
Битрейт : 3 220 Кбит/сек
Ширина : 1 280 пикселей
Высота : 534 пикселя
Соотношение сторон : 2,40:1
Режим частоты кадров : Постоянный
Частота кадров : 25,000 кадров/сек
Цветовое пространство : YUV
Субдискретизация насыщенности : 4:2:0
Битовая глубина : 8 бит
Тип развёртки : Прогрессивная
Бит/(Пиксели*Кадры) : 0.188
Размер потока : 2,72 Гбайт (87%)
Заголовок : France, Belgium (2425 Films, Wy Productions, France 2 Cinema)
Библиотека кодирования : x264 core 159 r2991 1771b55
Настройки программы : cabac=1 / ref=12 / deblock=1:-3:-3 / analyse=0x3:0x133 / me=umh / subme=11 / psy=1 / psy_rd=1.00:0.15 / mixed_ref=1 / me_range=32 / chroma_me=1 / trellis=2 / 8x8dct=1 / cqm=0 / deadzone=21,18 / fast_pskip=0 / chroma_qp_offset=-3 / threads=29 / lookahead_threads=4 / sliced_threads=0 / nr=60 / decimate=0 / interlaced=0 / bluray_compat=0 / constrained_intra=0 / bframes=16 / b_pyramid=2 / b_adapt=2 / b_bias=10 / direct=3 / weightb=1 / open_gop=0 / weightp=2 / keyint=250 / keyint_min=25 / scenecut=40 / intra_refresh=0 / rc_lookahead=60 / rc=2pass / mbtree=0 / bitrate=3220 / ratetol=1.0 / qcomp=0.70 / qpmin=3 / qpmax=69 / qpstep=4 / cplxblur=20.0 / qblur=0.5 / vbv_maxrate=5000 / vbv_bufsize=4000 / nal_hrd=none / filler=0 / ip_ratio=1.40 / pb_ratio=1.30 / aq=1:0.60
Язык : French
Default : Да
Forced : Нет
Цветовой диапазон : Limited
Основные цвета : BT.709
Характеристики трансфера : BT.709
Коэффициенты матрицы : BT.709

Аудио #1
Идентификатор : 2
Формат : AC-3
Формат/Информация : Audio Coding 3
Коммерческое название : Dolby Digital
Идентификатор кодека : A_AC3
Продолжительность : 2 ч. 4 м.
Вид битрейта : Постоянный
Битрейт : 192 Кбит/сек
Каналы : 2 канала
Channel layout : L R
Частота : 48,0 КГц
Частота кадров : 31,250 кадров/сек (1536 SPF)
Битовая глубина : 32 бит
Метод сжатия : С потерями
Размер потока : 171 Мбайт (5%)
Заголовок : MVO (MUZOBOZ)
Язык : Russian
Service kind : Complete Main
Default : Да
Forced : Нет

Аудио #2
Идентификатор : 3
Формат : AC-3
Формат/Информация : Audio Coding 3
Коммерческое название : Dolby Digital
Идентификатор кодека : A_AC3
Продолжительность : 2 ч. 4 м.
Вид битрейта : Постоянный
Битрейт : 192 Кбит/сек
Каналы : 2 канала
Channel layout : L R
Частота : 48,0 КГц
Частота кадров : 31,250 кадров/сек (1536 SPF)
Битовая глубина : 32 бит
Метод сжатия : С потерями
Размер потока : 171 Мбайт (5%)
Заголовок : Original (French)
Язык : French
Service kind : Complete Main
Default : Нет
Forced : Нет

Меню
00:00:00.000 : :Глава 01
00:10:00.000 : :Глава 02
00:20:00.000 : :Глава 03
00:30:00.000 : :Глава 04
00:40:00.000 : :Глава 05
00:50:00.000 : :Глава 06
01:00:00.000 : :Глава 07
01:10:00.000 : :Глава 08
01:20:00.000 : :Глава 09
01:30:00.000 : :Глава 10
01:40:00.000 : :Глава 11
01:50:00.000 : :Глава 12
02:00:00.000 : :Глава 13

piratbit.org



Скачать Черный ящик через торрент https://i116.fastpic.org/big/2022/0122/70/25f73f5584f2dd8ed8c58c048541c070.png Скачать, смотреть онлайн Черный ящик бесплантно в хорошем качестве Описание: Крушение новейшего авиалайнера уносит жизни сотен людей. Пролить свет на причины катастрофы может только расшифровка чёрного ... 10 10 5
Торрент: Зарегистрирован [2022-01-26 17:00] · скачан: 88 раз
Статус: T временная
Размер: 3.11 GB
Как cкачать? Как скачать Черный ящик через торрент | UTorrent

% Раздел Тема Автор DL S | L
T Фильмы (мультфильмы) cо спонсором показа (Новинки AVI/MKV) [ 2.04 GB ] Черный ящик / Boîte noire [2021 HDRip] MVO [@MUZOBOZ@] bober100 Скачать
18 | 1
T Фильмы 2021 [DVDrip, WEB-DLRip, HDrip] (DUB, MVO) [ 2.2 GB ] Черный ящик / Boîte noire / Black Box [2021 BDRip] MVO [@MUZOBOZ@] bober100 Скачать
14 | 0
T Фильмы [HD 720p, 1080p] (Хороший звук DUB, MVO) [ 11.11 GB ] Черный ящик / Boîte noire [2021 BDRip 1080p] MVO [@MUZOBOZ@] bober100 Скачать
36 | 0

28-11-2019 20:33  

Отключить всю рекламу на сайте

    Дорогой пользователь! Огромная просьба, поблагодарите релизера, оцените раздачу и оставьте свои комментарий, если Вы скачали Черный ящик через торрент бесплатно!
    Комментировать посты могут только пользователи прошедшие не сложную регистрацию
    Показать сообщения:    

    Черный ящик через торрент
    Скачать бесплатно Черный ящик
    Черный ящик скачать торрент
    Черный ящик смотреть онлайн
    Cкачать фильм Черный ящик бесплатно
    Черный ящик скачать торрент в хорошем качестве
    Черный ящик смотреть онлайн бесплатно в хорошем качестве


    Вы не можете начинать темы
    Вы не можете отвечать на сообщения
    Вы не можете редактировать свои сообщения
    Вы не можете удалять свои сообщения
    Вы не можете голосовать в опросах
    Вы не можете прикреплять файлы к сообщениям
    Вы можете скачивать файлы