Всегда рабочее зеркало без VPN и Proxy просто перед .vidak.icu напиши любое слово или цифру, Пример http://sxo.vidak.icu

>

7.4

iTunes

7.4

2 сезон

6.6

iTunes

1

6.9

1 сезон

7.2

iTunes

6.0

MVO

13

6.1

iTunes

8.3

Пиратка

30

ULTIMATE

pack

9.9

Лицензия

ВАЖНО

ИГРА 18+

pack

7.3

RePack

MK11

7.7

RePack

jed

7.8

RePack

fifa19

8.5

RePack

RDR2

RePack

NEED FOR SPEED™ PAYBACK

1 сезон

9 сезон

Бесстыжие 9 сезон

Все сериалы

все сериалы на PB.wtf

RePack

FAR CRY 5

Anonymous, добрый вечер, мы катастрофически не успеваем собрать деньги на оплату серверов, помогите нам пожалуйста 5,10,15р., для нас важна любая помощь . В качестве благодарности мы отключим Вам всю рекламу на сайте (укажите свой ник в строку Ваше имя)!

×
  
Magnet ссылка

Черный ящик / Boîte noire (Ян Гозлан) [2021, Триллер, драма, детектив, BDRip 1080p] MVO [@MUZOBOZ@] piratbit.org

Черный ящик через торрент piratbit.org

Раздают: 33 [ 15 MB/s ] Качают: 3 [ 0 KB/s ]
Размер: 11.11 GB | Добавлен: 2 д. назад | Торрент скачан:84 раза
Смотреть онлайн Черный ящик | Скачать    Ребята, помогите собрать деньги на оплату серверов!!!

11-01-2022 18:57 Черный ящик Скачать торрент  

Черный ящик
Boîte noire

Год выпуска: 2021
Страна: Франция, Бельгия
Выпущено: Wy Productions, 2425 Films, StudioCanal
Жанр: Триллер, драма, детектив
Продолжительность: 02:04:23
Перевод: Любительский (многоголосый) | @MUZOBOZ@
Субтитры: Английские, французские

Режиссер: Ян Гозлан

rating

В ролях: Пьер Нинэ, Лу де Лааж, Андре Дюссолье, Себастьен Пудеру, Оливье Рабурден, Гийом Марке, Мехди Джаади, Энн Азулай, Орельен Рекуан, Грегори Деранжер

Описание: Крушение новейшего авиалайнера уносит жизни сотен людей. Пролить свет на причины катастрофы может только расшифровка чёрного ящика. Расследование возглавляет талантливый и эксцентричный аналитик Матьё с уникальным слухом. Чем дальше он продвигается на своем пути, тем больше обнаруживает подозрительных обстоятельств. Но никто не верит Матьё. Так может это всего лишь изощрённые игры его разума?

Качество: BDRip 1080p
Формат: MKV

Видео: AVC/H.264, 1920x798, ~11.4 Мbps
Аудио 1: AC3, 2 ch, 192 Kbps - русский
Аудио 2: AC3, 6 ch, 640 Kbps - французский
скриншот  скриншот  скриншот  скриншот  

Общее
Уникальный идентификатор : 172072491409287542424526141907905455548 (0x8173F4D563640FC8F4E327508D86A5BC)
Полное имя : E:MONARВидеоХудожественные фильмыЗарубежное киноЧёрный ящик (2021) BDRip 1080p.mkv
Формат : Matroska
Версия формата : Version 4
Размер файла : 11,1 Гбайт
Продолжительность : 2 ч. 9 м.
Общий поток : 12,3 Мбит/сек
Название фильма : Boite noire (2021)
Дата кодирования : UTC 2022-01-23 18:41:48
Программа кодирования : mkvmerge v62.0.0 ('Apollo') 64-bit
Библиотека кодирования : libebml v1.4.2 + libmatroska v1.6.4

Видео
Идентификатор : 1
Формат : AVC
Формат/Информация : Advanced Video Codec
Профиль формата : High@L4.1
Настройки формата : CABAC / 5 Ref Frames
Параметр CABAC формата : Да
Параметр RefFrames формата : 5 кадров
Идентификатор кодека : V_MPEG4/ISO/AVC
Продолжительность : 2 ч. 9 м.
Битрейт : 11,4 Мбит/сек
Ширина : 1 920 пикселей
Высота : 798 пикселей
Соотношение сторон : 2,40:1
Режим частоты кадров : Постоянный
Частота кадров : 24,000 кадра/сек
Цветовое пространство : YUV
Субдискретизация насыщенности : 4:2:0
Битовая глубина : 8 бит
Тип развёртки : Прогрессивная
Бит/(Пиксели*Кадры) : 0.311
Размер потока : 10,4 Гбайт (93%)
Библиотека кодирования : x264 core 164 r3075+55M 97d28bb t_mod_New [(8 & 10)-bit@all X86_64]
Настройки программы : cabac=1 / ref=5 / deblock=1:-3:-3 / analyse=0x3:0x133 / me=umh / subme=10 / psy=1 / fade_compensate=0.00 / psy_rd=0.97:0.00 / mixed_ref=1 / me_range=32 / chroma_me=1 / trellis=2 / 8x8dct=1 / cqm=0 / deadzone=21,11 / fast_pskip=0 / chroma_qp_offset=-2 / threads=18 / lookahead_threads=4 / sliced_threads=0 / nr=0 / decimate=0 / interlaced=0 / bluray_compat=0 / constrained_intra=0 / fgo=0 / bframes=10 / b_pyramid=2 / b_adapt=2 / b_bias=0 / direct=3 / weightb=1 / open_gop=0 / weightp=2 / keyint=240 / keyint_min=24 / scenecut=40 / intra_refresh=0 / rc_lookahead=60 / rc=crf / mbtree=0 / crf=15.7000 / qcomp=0.65 / qpmin=0:0:0 / qpmax=69:69:69 / qpstep=4 / vbv_maxrate=62500 / vbv_bufsize=78125 / crf_max=0.0 / nal_hrd=none / filler=0 / ip_ratio=1.35 / pb_ratio=1.25 / aq=3:0.85 / aq-sensitivity=10.00 / aq-factor=1.00:1.00:1.00 / aq2=0 / aq3=0
Язык : French
Default : Да
Forced : Нет
Цветовой диапазон : Limited
Основные цвета : BT.709
Характеристики трансфера : BT.709
Коэффициенты матрицы : BT.709

Аудио #1
Идентификатор : 2
Формат : AC-3
Формат/Информация : Audio Coding 3
Коммерческое название : Dolby Digital
Идентификатор кодека : A_AC3
Продолжительность : 2 ч. 9 м.
Вид битрейта : Постоянный
Битрейт : 192 Кбит/сек
Каналы : 2 канала
Channel layout : L R
Частота : 48,0 КГц
Частота кадров : 31,250 кадров/сек (1536 SPF)
Метод сжатия : С потерями
Размер потока : 178 Мбайт (2%)
Заголовок : MVO
Язык : Russian
Service kind : Complete Main
Default : Да
Forced : Нет

Аудио #2
Идентификатор : 3
Формат : AC-3
Формат/Информация : Audio Coding 3
Коммерческое название : Dolby Digital
Идентификатор кодека : A_AC3
Продолжительность : 2 ч. 9 м.
Вид битрейта : Постоянный
Битрейт : 640 Кбит/сек
Каналы : 6 каналов
Channel layout : L R C LFE Ls Rs
Частота : 48,0 КГц
Частота кадров : 31,250 кадров/сек (1536 SPF)
Метод сжатия : С потерями
Размер потока : 594 Мбайт (5%)
Заголовок : original
Язык : French
Service kind : Complete Main
Default : Нет
Forced : Нет

Текст #1
Идентификатор : 4
Формат : UTF-8
Идентификатор кодека : S_TEXT/UTF8
Идентификатор кодека/Информация : UTF-8 Plain Text
Продолжительность : 2 ч. 9 м.
Битрейт : 45 бит/сек
Count of elements : 1475
Размер потока : 43,3 Кбайт (0%)
Заголовок : full
Язык : English
Default : Нет
Forced : Нет

Текст #2
Идентификатор : 5
Формат : UTF-8
Идентификатор кодека : S_TEXT/UTF8
Идентификатор кодека/Информация : UTF-8 Plain Text
Продолжительность : 2 ч. 9 м.
Битрейт : 47 бит/сек
Count of elements : 1475
Размер потока : 44,6 Кбайт (0%)
Заголовок : full
Язык : French
Default : Нет
Forced : Нет

Меню
00:00:00.000 : en:Chapter 01
00:08:26.083 : en:Chapter 02
00:19:20.542 : en:Chapter 03
00:28:55.000 : en:Chapter 04
00:39:09.000 : en:Chapter 05
00:49:04.958 : en:Chapter 06
00:59:41.000 : en:Chapter 07
01:13:12.500 : en:Chapter 08
01:19:47.500 : en:Chapter 09
01:31:26.833 : en:Chapter 10
01:40:16.750 : en:Chapter 11
01:48:49.667 : en:Chapter 12

piratbit.org



Скачать Черный ящик через торрент https://i116.fastpic.org/big/2022/0122/70/25f73f5584f2dd8ed8c58c048541c070.png Скачать, смотреть онлайн Черный ящик бесплантно в хорошем качестве Описание: Крушение новейшего авиалайнера уносит жизни сотен людей. Пролить свет на причины катастрофы может только расшифровка чёрного ... 10 10 8
Торрент: Зарегистрирован [2022-01-26 16:54] · скачан: 84 раз
Статус: T временная
Размер: 11.11 GB
Как cкачать? Как скачать Черный ящик через торрент | UTorrent

% Раздел Тема Автор DL S | L
T Фильмы (мультфильмы) cо спонсором показа (Новинки AVI/MKV) [ 2.04 GB ] Черный ящик / Boîte noire [2021 HDRip] MVO [@MUZOBOZ@] bober100 Скачать
23 | 1
T Фильмы 2021 [DVDrip, WEB-DLRip, HDrip] (DUB, MVO) [ 2.2 GB ] Черный ящик / Boîte noire / Black Box [2021 BDRip] MVO [@MUZOBOZ@] bober100 Скачать
17 | 2
T Фильмы [HD 720p, 1080p] (Хороший звук DUB, MVO) [ 3.11 GB ] Черный ящик / Boîte noire [2021 BDRip 720p] MVO [@MUZOBOZ@] bober100 Скачать
27 | 2

28-11-2019 20:33  

Отключить всю рекламу на сайте

    Дорогой пользователь! Огромная просьба, поблагодарите релизера, оцените раздачу и оставьте свои комментарий, если Вы скачали Черный ящик через торрент бесплатно!
    Комментировать посты могут только пользователи прошедшие не сложную регистрацию
    Показать сообщения:    

    Черный ящик через торрент
    Скачать бесплатно Черный ящик
    Черный ящик скачать торрент
    Черный ящик смотреть онлайн
    Cкачать фильм Черный ящик бесплатно
    Черный ящик скачать торрент в хорошем качестве
    Черный ящик смотреть онлайн бесплатно в хорошем качестве


    Вы не можете начинать темы
    Вы не можете отвечать на сообщения
    Вы не можете редактировать свои сообщения
    Вы не можете удалять свои сообщения
    Вы не можете голосовать в опросах
    Вы не можете прикреплять файлы к сообщениям
    Вы можете скачивать файлы