Всегда рабочее зеркало без VPN и Proxy просто перед .vidak.icu напиши любое слово или цифру, Пример http://3t4o.vidak.icu

MVO

MVO

1 сезон

1

1 сезон

iTunes

1 сезон

13

1 сезон

Deluxe

pack

Рекомендуем

Repack

30

ВАЖНО

RePack

MK11

RePack

jed

RePack

fifa19

RePack

RDR2

RePack

NEED FOR SPEED™ PAYBACK

Кинопоиск HD

6 сезон

 Острые козырьки 6 сезон

Все сериалы

все сериалы на PB.wtf

RePack

FAR CRY 5
  
Magnet ссылка

Черный ящик / Boîte noire / Black Box (Ян Гозлан) [2021, Триллер, драма, детектив, BDRip-AVC] DUB [СиПиАй Филмз / CPI Films | КиноПоиск HD] piratbit.org

Черный ящик через торрент piratbit.org

Размер: 2.21 GB | Добавлен: 6 мес. назад | Торрент скачан:53 раза
Смотреть онлайн Черный ящик | Скачать    Ребята, помогите собрать деньги на оплату серверов!!!

11-01-2022 18:59 Черный ящик Скачать торрент  

Черный ящик
Boîte noire | Black Box

Год выпуска: 2021
Страна: Франция, Бельгия
Выпущено: Wy Productions, 2425 Films, StudioCanal
Жанр: Триллер, драма, детектив
Продолжительность: 02:09:44
Перевод: Дублированный | СиПиАй Филмз / CPI Films | КиноПоиск HD
Субтитры: Английские

Режиссер: Ян Гозлан

rating

В ролях: Пьер Нинэ, Лу де Лааж, Андре Дюссолье, Себастьен Пудеру, Оливье Рабурден, Гийом Марке, Мехди Джаади, Энн Азулай, Орельен Рекуан, Грегори Деранжер

Описание: Крушение новейшего авиалайнера уносит жизни сотен людей. Пролить свет на причины катастрофы может только расшифровка чёрного ящика. Расследование возглавляет талантливый и эксцентричный аналитик Матьё с уникальным слухом. Чем дальше он продвигается на своем пути, тем больше обнаруживает подозрительных обстоятельств. Но никто не верит Матьё. Так может это всего лишь изощрённые игры его разума?

Качество: BDRip-AVC
Формат: MKV

Видео: MPEG-4 AVC, 1986 Кбит/с, 1024x432, 24 Кадр/с
Аудио: 48 kHz, AC3 Dolby Digital, 3/2 (L,C,R,l,r) + LFE ch, ~448 kbps
скриншот  скриншот  скриншот  скриншот  скриншот  

Общее
Уникальный идентификатор : 194401462780185787476985427667580609548 (0x92405C1E7B26B0AB2B6E316A7ACBE40C)
Полное имя : E:TorrentsBoite.Noire.2021.BDRip-AVC_от New-Team_by_JNS82.mkv
Формат : Matroska
Версия формата : Version 4
Размер файла : 2,21 Гбайт
Продолжительность : 2 ч. 9 м.
Общий поток : 2 434 Кбит/сек
Название фильма : Boite.Noire.2021.BDRip-AVC_от New-Team_by_JNS82
Дата кодирования : UTC 2022-02-03 05:48:15
Программа кодирования : mkvmerge v59.0.0 ('Shining Star') 64-bit
Библиотека кодирования : libebml v1.4.2 + libmatroska v1.6.4

Видео
Идентификатор : 1
Формат : AVC
Формат/Информация : Advanced Video Codec
Профиль формата : High@L4.1
Настройки формата : CABAC / 12 Ref Frames
Параметр CABAC формата : Да
Параметр RefFrames формата : 12 кадров
Идентификатор кодека : V_MPEG4/ISO/AVC
Продолжительность : 2 ч. 9 м.
Битрейт : 1 986 Кбит/сек
Ширина : 1 024 пикселя
Высота : 432 пикселя
Соотношение сторон : 2,40:1
Режим частоты кадров : Постоянный
Частота кадров : 24,000 кадра/сек
Цветовое пространство : YUV
Субдискретизация насыщенности : 4:2:0
Битовая глубина : 8 бит
Тип развёртки : Прогрессивная
Бит/(Пиксели*Кадры) : 0.187
Размер потока : 1,80 Гбайт (82%)
Библиотека кодирования : x264 core 164 r3079 d9a19f0
Настройки программы : cabac=1 / ref=12 / deblock=1:-3:-2 / analyse=0x3:0x113 / me=umh / subme=11 / psy=1 / psy_rd=1.00:0.11 / mixed_ref=1 / me_range=32 / chroma_me=1 / trellis=2 / 8x8dct=1 / cqm=0 / deadzone=21,11 / fast_pskip=1 / chroma_qp_offset=-3 / threads=6 / lookahead_threads=1 / sliced_threads=0 / nr=0 / decimate=1 / interlaced=0 / bluray_compat=0 / constrained_intra=0 / bframes=12 / b_pyramid=2 / b_adapt=2 / b_bias=0 / direct=1 / weightb=1 / open_gop=1 / weightp=2 / keyint=240 / keyint_min=22 / scenecut=40 / intra_refresh=0 / rc_lookahead=40 / rc=2pass / mbtree=0 / bitrate=1986 / ratetol=1.0 / qcomp=0.70 / qpmin=10 / qpmax=51 / qpstep=4 / cplxblur=20.0 / qblur=0.5 / vbv_maxrate=62500 / vbv_bufsize=78125 / nal_hrd=none / filler=0 / ip_ratio=1.40 / pb_ratio=1.00 / aq=1:1.00
Default : Да
Forced : Нет

Аудио
Идентификатор : 2
Формат : AC-3
Формат/Информация : Audio Coding 3
Коммерческое название : Dolby Digital
Идентификатор кодека : A_AC3
Продолжительность : 2 ч. 9 м.
Вид битрейта : Постоянный
Битрейт : 448 Кбит/сек
Каналы : 6 каналов
Channel layout : L R C LFE Ls Rs
Частота : 48,0 КГц
Частота кадров : 31,250 кадров/сек (1536 SPF)
Метод сжатия : С потерями
Размер потока : 416 Мбайт (18%)
Заголовок : [DUB] КиноПоиск HD
Язык : Russian
Service kind : Complete Main
Default : Да
Forced : Нет

Текст
Идентификатор : 3
Формат : UTF-8
Идентификатор кодека : S_TEXT/UTF8
Идентификатор кодека/Информация : UTF-8 Plain Text
Продолжительность : 2 ч. 3 м.
Битрейт : 37 бит/сек
Count of elements : 1219
Размер потока : 34,1 Кбайт (0%)
Язык : English
Default : Нет
Forced : Нет

piratbit.org



Скачать Черный ящик через торрент https://i116.fastpic.org/big/2022/0122/70/25f73f5584f2dd8ed8c58c048541c070.png Скачать, смотреть онлайн Черный ящик бесплантно в хорошем качестве Описание: Крушение новейшего авиалайнера уносит жизни сотен людей. Пролить свет на причины катастрофы может только расшифровка чёрного ... 10 10 12
Торрент: Зарегистрирован [2022-02-03 11:12] · скачан: 53 раз
Статус: √ проверено
Размер: 2.21 GB
Как cкачать? Как скачать Черный ящик через торрент | UTorrent

% Раздел Тема Автор DL S | L
Фильмы 2021 [DVDrip, WEB-DLRip, HDrip] (DUB, MVO) [ 2.18 GB ] Черный ящик / Boîte noire / Black Box [2021 BDRip] - [Кинопоиск HD] Twi7ter Скачать
10 | 1
Фильмы [HD 720p, 1080p] (Хороший звук DUB, MVO) [ 7.09 GB ] Черный ящик / Boîte noire / Black Box [2021 BDRip 720p] DUB [СиПиАй Филмз / CPI Films | КиноПоиск HD] bober100 Скачать
2 | 0
Фильмы 2021 [DVDrip, WEB-DLRip, HDrip] (DUB, MVO) [ 2.94 GB ] Черный ящик / Boîte noire / Black Box [2021 BDRip-AVC] DUB [КиноПоиск HD] от ExKinoRay Lithuania Скачать
2 | 0
Фильмы 2021 [DVDrip, WEB-DLRip, HDrip] (DUB, MVO) [ 1.46 GB ] Черный ящик / Boîte noire / Black Box [2021 BDRip] - [Кинопоиск HD] Twi7ter Скачать
57 | 1
Фильмы 2021 [DVDrip, WEB-DLRip, HDrip] (DUB, MVO) [ 1.45 GB ] Черный ящик / Boîte noire / Black Box [2021 BDRip] DUB [СиПиАй Филмз / CPI Films | КиноПоиск HD] bober100 Скачать
1 | 0
Фильмы (Blu-ray, BD-Remux, HDDVD) [ 28.1 GB ] Черный ящик / Boîte noire / Black Box [2021 BD Remux 1080p] DUB [СиПиАй Филмз / CPI Films | КиноПоиск HD] bober100 Скачать
1 | 0
Фильмы 2021 [DVDrip, WEB-DLRip, HDrip] (DUB, MVO) [ 2.18 GB ] Черный ящик / Boîte noire / Black Box [2021 BDRip] DUB [СиПиАй Филмз / CPI Films | КиноПоиск HD] bober100 Скачать
1 | 0


Последний раз редактировалось: bober100 (2022-02-03 12:40), всего редактировалось 3 раз(а)

28-11-2019 20:33  

Отключить вcю реклaмy на сайте

11-01-2022 19:26 Черный ящик Скачать торрент  

не шедевр, но на вечер вполне себе!piratbit.org



    Дорогой пользователь! Огромная просьба, поблагодарите релизера, оцените раздачу и оставьте свои комментарий, если Вы скачали Черный ящик через торрент бесплатно!
    Комментировать посты могут только пользователи прошедшие не сложную регистрацию
    Показать сообщения:    

    Черный ящик через торрент
    Скачать бесплатно Черный ящик
    Черный ящик скачать торрент
    Черный ящик смотреть онлайн
    Cкачать фильм Черный ящик бесплатно
    Черный ящик скачать торрент в хорошем качестве
    Черный ящик смотреть онлайн бесплатно в хорошем качестве


    Вы не можете начинать темы
    Вы не можете отвечать на сообщения
    Вы не можете редактировать свои сообщения
    Вы не можете удалять свои сообщения
    Вы не можете голосовать в опросах
    Вы не можете прикреплять файлы к сообщениям
    Вы можете скачивать файлы