Всегда рабочее зеркало без VPN и Proxy просто перед .vidak.icu напиши любое слово или цифру, Пример http://b8r.vidak.icu

>

7.4

iTunes

7.4

2 сезон

6.6

iTunes

1

6.9

1 сезон

7.2

iTunes

6.0

MVO

13

6.1

iTunes

8.3

Пиратка

30

ULTIMATE

pack

9.9

Лицензия

ВАЖНО

ИГРА 18+

pack

7.3

RePack

MK11

7.7

RePack

jed

7.8

RePack

fifa19

8.5

RePack

RDR2

RePack

NEED FOR SPEED™ PAYBACK

1 сезон

9 сезон

Бесстыжие 9 сезон

Все сериалы

все сериалы на PB.wtf

RePack

FAR CRY 5

Anonymous, добрый вечер, мы катастрофически не успеваем собрать деньги на оплату серверов, помогите нам пожалуйста 5,10,15р., для нас важна любая помощь . В качестве благодарности мы отключим Вам всю рекламу на сайте (укажите свой ник в строку Ваше имя)!

×
  
Magnet ссылка

Дъявол в Мисс Джонс / The New Devil In Miss Jones (Paul Thomas / Vivid) [2005 г., Feature, Couples, Story, DVD9] DVO (Rus) piratbit.org

Дъявол в Мисс Джонс через торрент piratbit.org

Раздают: 5 [ 0 KB/s ]
Размер: 5.59 GB | Добавлен: 16 д. назад | Торрент скачан:79 раз
Смотреть онлайн Дъявол в Мисс Джонс | Скачать    Ребята, помогите собрать деньги на оплату серверов!!!

12-01-2022 09:49 Дъявол в Мисс Джонс Скачать торрент  

Дъявол в Мисс Джонс / The New Devil In Miss Jones
Год выпуска: 2005
Страна: США
Жанр: Feature, Couples, Story
Продолжительность: 01:49:45
Перевод: Профессиональный (двухголосый)

Студия: Vivid

Режиссёр: Paul Thomas

В ролях: Jenna Jameson, Savanna Samson, Roxanne Hall, Nick Manning, Alec Metro, Anthony Hardwood, Mario Rossi, Jessica Jaymes, Kris Slater, Angelica Sinn, Rachel Rotten, Jeremy Steele, Vicki Vette, Rob Rotten, Brooke Alexander, Dick Smothers Jr

Описание: 25 лет спустя дьявол получает своё...
Пол Томас воссоздаёт шедевр взрослого кино. Саванна (Мисс Джонс), самоубийца-девственница, просит Дженну (Дьявол) предоставить ей еще немного времени, прежде чем отправится в ад. Дженна согласна... но только если Мисс Джонс целиком и полностью отдаст себя во Влacть плотских грехов!
Качество: DVD9
Формат: DVD Video
Видео: 720x480, MPEG 2, 5300 Кбит/сек
Аудио#1: Английский, AC3, 2 ch, 192 Кбит/сек
Аудио#2: Английский, AC3, 2 ch, 192 Кбит/сек (Комментарии Дженны)
Аудио#3: Английский, AC3, 2 ch, 192 Кбит/сек (Комментарии Пола Томаса)
Аудио#4: Английский, AC3, 2 ch, 192 Кбит/сек (Комментарии Georgina Spelvin)
Аудио#5: Русский, AC3, 2 ch, 192 Кбит/сек
Аудио#6: Французский, AC3, 2 ch, 192 Кбит/сек
Аудио#7: Итальянский, AC3, 2 ch, 192 Кбит/сек
Аудио#8: Немецкий, AC3, 2 ch, 192 Кбит/сек
Видео
Идентификатор : 224 (0xE0)
Формат : MPEG Video
Версия формата : Version 2
Профиль формата : Main@Main
Настройки формата : BVOP
Параметр BVOP формата : Да
Параметр матрицы формата : По умолчанию
Параметр GOP формата : M=3, N=13
Структура изображения : Frame
Продолжительность : 20 м. 31 с.
Вид битрейта : Переменный
Битрейт : 5 300 Кбит/сек
Ширина : 720 пикселей
Высота : 480 пикселей
Соотношение сторон : 4:3
Частота кадров : 29,970 (30000/1001) кадров/сек
Стандарт вещания : NTSC
Цветовое пространство : YUV
Субдискретизация насыщенности : 4:2:0
Битовая глубина : 8 бит
Тип развёртки : Чересстрочная
Порядок развёртки : Верхнее поле первое
Метод сжатия : С потерями
Бит/(Пиксели*Кадры) : 0.512
Временной код первого кадра : 01:00:29:16
Оригинал временного кода : Group of pictures header
GOP, открыто/закрыто : Открыто
Размер потока : 778 Мбайт (76%)
Основные цвета : BT.601 NTSC
Характеристики трансфера : BT.601
Коэффициенты матрицы : BT.601

Аудио #1
Идентификатор : 189 (0xBD)-128 (0x80)
Формат : AC-3
Формат/Информация : Audio Coding 3
Коммерческое название : Dolby Digital
Режим смешивания : DVD-Video
Продолжительность : 20 м. 31 с.
Вид битрейта : Постоянный
Битрейт : 192 Кбит/сек
Каналы : 2 канала
Channel layout : L R
Частота : 48,0 КГц
Частота кадров : 31,250 кадров/сек (1536 SPF)
Метод сжатия : С потерями
Размер потока : 28,2 Мбайт (3%)
Service kind : Complete Main

Аудио #2
Идентификатор : 189 (0xBD)-129 (0x81)
Формат : AC-3
Формат/Информация : Audio Coding 3
Коммерческое название : Dolby Digital
Режим смешивания : DVD-Video
Продолжительность : 20 м. 31 с.
Вид битрейта : Постоянный
Битрейт : 192 Кбит/сек
Каналы : 2 канала
Channel layout : L R
Частота : 48,0 КГц
Частота кадров : 31,250 кадров/сек (1536 SPF)
Метод сжатия : С потерями
Размер потока : 28,2 Мбайт (3%)
Service kind : Complete Main

Аудио #3
Идентификатор : 189 (0xBD)-130 (0x82)
Формат : AC-3
Формат/Информация : Audio Coding 3
Коммерческое название : Dolby Digital
Режим смешивания : DVD-Video
Продолжительность : 20 м. 31 с.
Вид битрейта : Постоянный
Битрейт : 192 Кбит/сек
Каналы : 2 канала
Channel layout : L R
Частота : 48,0 КГц
Частота кадров : 31,250 кадров/сек (1536 SPF)
Метод сжатия : С потерями
Размер потока : 28,2 Мбайт (3%)
Service kind : Complete Main

Аудио #4
Идентификатор : 189 (0xBD)-131 (0x83)
Формат : AC-3
Формат/Информация : Audio Coding 3
Коммерческое название : Dolby Digital
Режим смешивания : DVD-Video
Продолжительность : 20 м. 31 с.
Вид битрейта : Постоянный
Битрейт : 192 Кбит/сек
Каналы : 2 канала
Channel layout : L R
Частота : 48,0 КГц
Частота кадров : 31,250 кадров/сек (1536 SPF)
Метод сжатия : С потерями
Размер потока : 28,2 Мбайт (3%)
Service kind : Complete Main

Аудио #5
Идентификатор : 189 (0xBD)-132 (0x84)
Формат : AC-3
Формат/Информация : Audio Coding 3
Коммерческое название : Dolby Digital
Режим смешивания : DVD-Video
Продолжительность : 20 м. 31 с.
Вид битрейта : Постоянный
Битрейт : 192 Кбит/сек
Каналы : 2 канала
Channel layout : L R
Частота : 48,0 КГц
Частота кадров : 31,250 кадров/сек (1536 SPF)
Метод сжатия : С потерями
Размер потока : 28,2 Мбайт (3%)
Service kind : Complete Main

Аудио #6
Идентификатор : 189 (0xBD)-133 (0x85)
Формат : AC-3
Формат/Информация : Audio Coding 3
Коммерческое название : Dolby Digital
Режим смешивания : DVD-Video
Продолжительность : 20 м. 31 с.
Вид битрейта : Постоянный
Битрейт : 192 Кбит/сек
Каналы : 2 канала
Channel layout : L R
Частота : 48,0 КГц
Частота кадров : 31,250 кадров/сек (1536 SPF)
Метод сжатия : С потерями
Размер потока : 28,2 Мбайт (3%)
Service kind : Complete Main

Аудио #7
Идентификатор : 189 (0xBD)-134 (0x86)
Формат : AC-3
Формат/Информация : Audio Coding 3
Коммерческое название : Dolby Digital
Режим смешивания : DVD-Video
Продолжительность : 20 м. 31 с.
Вид битрейта : Постоянный
Битрейт : 192 Кбит/сек
Каналы : 2 канала
Channel layout : L R
Частота : 48,0 КГц
Частота кадров : 31,250 кадров/сек (1536 SPF)
Метод сжатия : С потерями
Размер потока : 28,2 Мбайт (3%)
Service kind : Complete Main

Аудио #8
Идентификатор : 189 (0xBD)-135 (0x87)
Формат : AC-3
Формат/Информация : Audio Coding 3
Коммерческое название : Dolby Digital
Режим смешивания : DVD-Video
Продолжительность : 20 м. 31 с.
Вид битрейта : Постоянный
Битрейт : 192 Кбит/сек
Каналы : 2 канала
Channel layout : L R
Частота : 48,0 КГц
Частота кадров : 31,250 кадров/сек (1536 SPF)
Метод сжатия : С потерями
Размер потока : 28,2 Мбайт (3%)
Service kind : Complete Main

piratbit.org



pack Скачать Дъявол в Мисс Джонс через торрент https://d.radikal.ru/d02/2201/3f/7fe4562cf463.jpg Скачать, смотреть онлайн Дъявол в Мисс Джонс бесплантно в хорошем качестве Описание: 25 лет спустя дьявол получает своё...Пол Томас воссоздаёт шедевр взрослого кино. Саванна (Мисс Джонс), самоубийца-девственница, ... 9.6 10 5
Info! Золотая раздача, скачанное не засчитывается.
Торрент: Зарегистрирован [2022-01-12 09:49] · скачан: 79 раз
Статус: √ проверено
Размер: 5.59 GB
Как cкачать? Как скачать Дъявол в Мисс Джонс через торрент | UTorrent



Последний раз редактировалось: Леонид Ильич (2022-01-13 08:05), всего редактировалось 1 раз

28-11-2019 20:33  

Отключить всю рекламу на сайте

13-01-2022 17:52 Дъявол в Мисс Джонс Скачать торрент  

Топик был перенесен из форума Порно фильмы DVD в форум Порно фильмы с русским переводом


Pir@tya2010piratbit.org



pack
    Дорогой пользователь! Огромная просьба, поблагодарите релизера, оцените раздачу и оставьте свои комментарий, если Вы скачали Дъявол в Мисс Джонс через торрент бесплатно!
    Комментировать посты могут только пользователи прошедшие не сложную регистрацию
    Показать сообщения:    

    Дъявол в Мисс Джонс через торрент
    Скачать бесплатно Дъявол в Мисс Джонс
    Дъявол в Мисс Джонс скачать торрент
    Дъявол в Мисс Джонс смотреть онлайн
    Cкачать фильм Дъявол в Мисс Джонс бесплатно
    Дъявол в Мисс Джонс скачать торрент в хорошем качестве
    Дъявол в Мисс Джонс смотреть онлайн бесплатно в хорошем качестве


    Вы не можете начинать темы
    Вы не можете отвечать на сообщения
    Вы не можете редактировать свои сообщения
    Вы не можете удалять свои сообщения
    Вы не можете голосовать в опросах
    Вы не можете прикреплять файлы к сообщениям
    Вы можете скачивать файлы