Всегда рабочее зеркало без VPN и Proxy просто перед .vidak.icu напиши любое слово или цифру, Пример http://6z8m.vidak.icu

MVO

MVO

1 сезон

1

1 сезон

iTunes

1 сезон

13

1 сезон

Deluxe

pack

Рекомендуем

Repack

30

ВАЖНО

RePack

MK11

RePack

jed

RePack

fifa19

RePack

RDR2

RePack

NEED FOR SPEED™ PAYBACK

Кинопоиск HD

6 сезон

 Острые козырьки 6 сезон

Все сериалы

все сериалы на PB.wtf

RePack

FAR CRY 5
  
Magnet ссылка

Проклятие монахинь / Agnes (Мики Рис) [2021, Ужасы, драма, BDRip 1080p] DUB [Марафон] piratbit.org

Проклятие монахинь через торрент piratbit.org

Раздают: 1 [ 0 KB/s ]
Размер: 7.94 GB | Добавлен: 2 мес. 2 д. назад | Торрент скачан:19 раз
Смотреть онлайн Проклятие монахинь | Скачать    Ребята, помогите собрать деньги на оплату серверов!!!

12-01-2022 13:53 Проклятие монахинь Скачать торрент  

Проклятие монахинь
Agnes

Год выпуска: 2021
Страна: США
Выпущено: Divide/Conquer, Perm Machine, QWGmire
Жанр: Ужасы, драма
Продолжительность: 01:32:28
Перевод: Дублированный | Марафон
Субтитры: Русские (Full), английские

Режиссер: Мики Рис

rating

В ролях: Молли К. Куинн, Шон Ганн, Хейли МакФарланд, Крис Браунинг, Рэйчел Тру, Джейк Хоровиц, Зэнди Хартиг, Брюс Дэвис, Крис Фрейхофер, Хизер Сисс

Описание: Когда отдаленный женский монастырь потрясает серия загадочных и трагических событий, слухи об одержимости демонами среди монахинь побуждают церковь начать внутреннее расследование. В святую обитель отправляется опытный священник и его молодой помощник. Им придется столкнуться со страшной силой, захватившей невест господа и сразиться с собственными демонами, искушениями и кризисом веры.

Качество: BDRip 1080p
Формат: MKV

Видео: MPEG-4 AVC, 11.3 Mb/s, 1920x752, 23.976 fps
Аудио #01: 48 kHz, AC3, 5.1, 384 Kbps | Дублированный | RUS |
Аудио #02: 48 kHz, AC3, 5.1, 640 Kbps | Оригинал | ENG |
скриншот  скриншот  скриншот  скриншот  

Complete name: Proklyatie.monahin.2021.BDRip.1080p.ELEKTRI4KA.UNIONGANG.mkv
Format: Matroska
Format version: Version 4
File size: 7.94 GiB
Duration: 1 h 32 min
Overall bit rate: 12.3 Mb/s
Movie name: Proklyatie.monahin.2021.BDRip.1080p.ELEKTRI4KA.UNIONGANG
Encoded date: UTC 2022-06-06 22:41:30
Writing application: mkvmerge v8.3.0 ('Over the Horizon') 32bit
Writing library: libebml v1.3.1 + libmatroska v1.4.2

Video
ID: 1
Format: AVC
Format/Info: Advanced Video Codec
Format profile: High@L4.1
Format settings: CABAC / 5 Ref Frames
Format settings, CABAC: Yes
Format settings, Reference frames: 5 frames
Codec ID: V_MPEG4/ISO/AVC
Duration: 1 h 32 min
Bit rate: 11.3 Mb/s
Width: 1 920 pixels
Height: 752 pixels
Display aspect ratio: 2.553
Frame rate mode: Constant
Frame rate: 23.976 (24000/1001) FPS
Color space: YUV
Chroma subsampling: 4:2:0
Bit depth: 8 bits
Scan type: Progressive
Bits/(Pixel*Frame): 0.326
Stream size: 7.28 GiB (92%)
Writing library: x264 core 164 r3094+49M 0246926 devel [(8 & 10)-bit@all X86_64]
Encoding settings: cabac=1 / ref=5 / deblock=1:-3:-3 / analyse=0x3:0x133 / me=umh / subme=10 / psy=1 / fade_compensate=0.00 / psy_rd=1.00:0.00 / mixed_ref=1 / me_range=32 / chroma_me=1 / trellis=2 / 8x8dct=1 / cqm=0 / deadzone=21, 11 / fast_pskip=0 / chroma_qp_offset=-2 / threads=12 / lookahead_threads=2 / sliced_threads=0 / nr=0 / decimate=0 / interlaced=0 / bluray_compat=0 / constrained_intra=0 / fgo=0 / bframes=8 / b_pyramid=2 / b_adapt=2 / b_bias=0 / direct=3 / weightb=1 / open_gop=0 / weightp=2 / keyint=250 / keyint_min=23 / scenecut=40 / intra_refresh=0 / rc_lookahead=60 / rc=2pass / mbtree=0 / bitrate=11272 / ratetol=1.0 / qcomp=0.60 / qpmin=0:0:0 / qpmax=69:69:69 / qpstep=4 / cplxblur=20.0 / qblur=0.5 / vbv_maxrate=62500 / vbv_bufsize=78125 / nal_hrd=none / filler=0 / ip_ratio=1.30 / pb_ratio=1.20 / aq=3:0.80 / aq-sensitivity=10.00 / aq-factor=1.00:1.00:1.00 / aq2=0 / aq3=0
Default: Yes
Forced: No
Color range: Limited
Color primaries: BT.709
Transfer characteristics: BT.709
Matrix coefficients: BT.709

Audio #1
ID: 2
Format: AC-3
Format/Info: Audio Coding 3
Commercial name: Dolby Digital
Codec ID: A_AC3
Duration: 1 h 32 min
Bit rate mode: Constant
Bit rate: 384 kb/s
Channel(s): 6 channels
Channel layout: L R C LFE Ls Rs
Sampling rate: 48.0 kHz
Frame rate: 31.250 FPS (1536 SPF)
Compression mode: Lossy
Stream size: 254 MiB (3%)
Title: DUB (Marafon)
Language: Russian
Service kind: Complete Main
Default: Yes
Forced: Yes

Audio #2
ID: 3
Format: AC-3
Format/Info: Audio Coding 3
Commercial name: Dolby Digital
Codec ID: A_AC3
Duration: 1 h 32 min
Bit rate mode: Constant
Bit rate: 640 kb/s
Channel(s): 6 channels
Channel layout: L R C LFE Ls Rs
Sampling rate: 48.0 kHz
Frame rate: 31.250 FPS (1536 SPF)
Compression mode: Lossy
Stream size: 423 MiB (5%)
Title: Original
Language: English
Service kind: Complete Main
Default: No
Forced: No

Text #1
ID: 4
Format: UTF-8
Codec ID: S_TEXT/UTF8
Codec ID/Info: UTF-8 Plain Text
Duration: 1 h 28 min
Bit rate: 100 b/s
Count of elements: 1265
Stream size: 65.5 KiB (0%)
Title: Full
Language: Russian
Default: No
Forced: No

Text #2
ID: 5
Format: UTF-8
Codec ID: S_TEXT/UTF8
Codec ID/Info: UTF-8 Plain Text
Duration: 1 h 31 min
Bit rate: 69 b/s
Count of elements: 1467
Stream size: 46.8 KiB (0%)
Language: English
Default: No
Forced: No

Menu
00:00:00.000: en:Chapter 01
00:10:38.638: en:Chapter 02
00:16:33.993: en:Chapter 03
00:22:36.355: en:Chapter 04
00:31:29.888: en:Chapter 05
00:41:51.509: en:Chapter 06
00:48:50.928: en:Chapter 07
00:57:13.430: en:Chapter 08
01:07:29.045: en:Chapter 09
01:15:26.522: en:Chapter 10
01:21:36.892: en:Chapter 11
01:29:25.360: en:Chapter 12

piratbit.org



Скачать Проклятие монахинь через торрент https://i120.fastpic.org/big/2022/0607/3b/3a96297dffb16d43101b6acce054553b.png Скачать, смотреть онлайн Проклятие монахинь бесплантно в хорошем качестве Описание: Когда отдаленный женский монастырь потрясает серия загадочных и трагических событий, слухи об одержимости демонами среди монахинь ... 8.7 10 7
Торрент: Зарегистрирован [2022-06-07 02:47] · скачан: 19 раз
Статус: √ проверено
Размер: 7.94 GB
Как cкачать? Как скачать Проклятие монахинь через торрент | UTorrent

% Раздел Тема Автор DL S | L
Фильмы [HD 720p, 1080p] (Хороший звук DUB, MVO) [ 4.53 GB ] Проклятие монахинь / Agnes [2021 BDRip 720p] DUB [Марафон] bober100 Скачать
1 | 0
Фильмы 2021 [DVDrip, WEB-DLRip, HDrip] (DUB, MVO) [ 745 MB ] Проклятие монахинь / Agnes [2021 HDRip] DUB [Марафон] bober100 Скачать
1 | 0
Фильмы 2021 [DVDrip, WEB-DLRip, HDrip] (DUB, MVO) [ 1.46 GB ] Проклятие монахинь / Agnes [2021 HDRip] DUB [Марафон] bober100 Скачать
1 | 0


Последний раз редактировалось: bober100 (2022-06-07 02:55), всего редактировалось 3 раз(а)

28-11-2019 20:33  

Отключить вcю реклaмy на сайте

19-01-2022 09:50 Проклятие монахинь Скачать торрент  

Фильм - унылое убожество. Просто зря потраченное времяpiratbit.org



20-01-2022 13:27 Проклятие монахинь Скачать торрент  

не тратьте времяpiratbit.org



21-01-2022 15:23 Проклятие монахинь Скачать торрент  

Судя по рейтингу кинопоиска шлак тот ещеpiratbit.org



16-02-2022 16:38 Проклятие монахинь Скачать торрент  

судя по рейтингу фильм снял сам себя я люблю трешаки ну этот пожалуй пропущу piratbit.org



28-03-2022 12:56 Проклятие монахинь Скачать торрент  

chenya28 писал(а):

судя по рейтингу фильм снял сам себя я люблю трешаки ну этот пожалуй пропущу

piratbit.org



07-06-2022 04:15 Проклятие монахинь Скачать торрент  

Ну как бы все фильмы до рейтинга 5.0 полная фигня, я о жутиках говорю. К сожалению таких наплодили не мало ужасов, в последнее время смотреть нечего, хороших ужасов давно уже нет. Последнее что я глянул это было Злое, вот он мне понравился хотя это можно назвать не ужасомpiratbit.org



13-06-2022 15:57 Проклятие монахинь Скачать торрент  

спасибоpiratbit.org



    Дорогой пользователь! Огромная просьба, поблагодарите релизера, оцените раздачу и оставьте свои комментарий, если Вы скачали Проклятие монахинь через торрент бесплатно!
    Комментировать посты могут только пользователи прошедшие не сложную регистрацию
    Показать сообщения:    

    Проклятие монахинь через торрент
    Скачать бесплатно Проклятие монахинь
    Проклятие монахинь скачать торрент
    Проклятие монахинь смотреть онлайн
    Cкачать фильм Проклятие монахинь бесплатно
    Проклятие монахинь скачать торрент в хорошем качестве
    Проклятие монахинь смотреть онлайн бесплатно в хорошем качестве


    Вы не можете начинать темы
    Вы не можете отвечать на сообщения
    Вы не можете редактировать свои сообщения
    Вы не можете удалять свои сообщения
    Вы не можете голосовать в опросах
    Вы не можете прикреплять файлы к сообщениям
    Вы можете скачивать файлы