Всегда рабочее зеркало без VPN и Proxy просто перед .vidak.icu напиши любое слово или цифру, Пример http://a0q.vidak.icu

>

7.4

iTunes

7.4

2 сезон

6.6

iTunes

1

6.9

1 сезон

7.2

iTunes

6.0

MVO

13

6.1

iTunes

8.3

Пиратка

30

ULTIMATE

pack

9.9

Лицензия

ВАЖНО

ИГРА 18+

pack

7.3

RePack

MK11

7.7

RePack

jed

7.8

RePack

fifa19

8.5

RePack

RDR2

RePack

NEED FOR SPEED™ PAYBACK

1 сезон

9 сезон

Бесстыжие 9 сезон

Все сериалы

все сериалы на PB.wtf

RePack

FAR CRY 5

Anonymous, добрый вечер, мы катастрофически не успеваем собрать деньги на оплату серверов, помогите нам пожалуйста 5,10,15р., для нас важна любая помощь . В качестве благодарности мы отключим Вам всю рекламу на сайте (укажите свой ник в строку Ваше имя)!

×
  
Magnet ссылка

Пес-молокосос / Allan the Dog (Бэрри Мерфи) [2020, Комедия, WEB-DL 1080p] MVO [Кинопоиск HD] piratbit.org

Пес-молокосос через торрент piratbit.org

Раздают: 4 [ 2 MB/s ]
Размер: 4.37 GB | Добавлен: 14 д. назад | Торрент скачан:36 раз
Смотреть онлайн Пес-молокосос | Скачать    Ребята, помогите собрать деньги на оплату серверов!!!

13-01-2022 16:48 Пес-молокосос Скачать торрент  

Пес-молокосос
Allan the Dog

Год выпуска: 2020
Страна: США
Студия: Petri Entertainment, SBA Pictures
Жанр: Комедия
Продолжительность: 01:31:01
Перевод: Профессиональный (многоголосый) | Кинопоиск HD
Субтитры: отсутствуют

Режиссер: Бэрри Мерфи

rating

В ролях: Стивен Уэбер, Сэм Дэйли, Элисон Хэйслип, Гвен Холландер, Чуи Мартинес, Томас Бойкин, Стив Райт, Кэти Пауэрс, Джон Бейдер, Шон Филлипс, Бэрри Мерфи

Описание: Мэтт и его говорящий пес Аллан ищут голливудской славы как дуэт стендап-комиков. Они — идеальные сценические партнеры и закадычные друзья, но только до тех пор, пока не влюбляются в одну девушку.

Качество: WEB-DL 1080p
Формат: MKV

Видео: MPEG-4 AVC, 6000 Кb/s, 1920x960, 25.000 fps
Аудио #01: 48 kHz, AC3, 5.1, 448 Kbps | Профессиональный многоголосый | Кинопоиск HD | RUS |
Аудио #02: 48 kHz, E-AC3, 5.1, 448 Kbps | Профессиональный многоголосый | Кинопоиск HD | RUS |
скриншот  скриншот  скриншот  скриншот  

Complete name : Pes.Molokosos.2020.WEB-DL.1080p.ELEKTRI4KA.UNIONGANG.mkv
Format : Matroska
Format version : Version 4
File size : 4.37 GiB
Duration : 1 h 31 min
Overall bit rate : 6 867 kb/s
Movie name : Pes.Molokosos.2020.WEB-DL.1080p.ELEKTRI4KA.UNIONGANG.
Encoded date : UTC 2022-01-13 16:00:05
Writing application : mkvmerge v63.0.0 ('Everything') 32-bit
Writing library : libebml v1.4.2 + libmatroska v1.6.4

Video
ID : 1
Format : AVC
Format/Info : Advanced Video Codec
Format profile : High@L4
Format settings : CABAC / 4 Ref Frames
Format settings, CABAC : Yes
Format settings, Reference frames : 4 frames
Codec ID : V_MPEG4/ISO/AVC
Duration : 1 h 31 min
Bit rate : 6 000 kb/s
Width : 1 920 pixels
Height : 960 pixels
Display aspect ratio : 2.000
Frame rate mode : Constant
Frame rate : 25.000 FPS
Color space : YUV
Chroma subsampling : 4:2:0
Bit depth : 8 bits
Scan type : Progressive
Bits/(Pixel*Frame) : 0.130
Stream size : 3.79 GiB (87%)
Writing library : x264 core 157
Encoding settings : cabac=1 / ref=4 / deblock=1:0:0 / analyse=0x3:0x133 / me=umh / subme=10 / psy=1 / psy_rd=1.00:0.00 / mixed_ref=1 / me_range=24 / chroma_me=1 / trellis=2 / 8x8dct=1 / cqm=0 / deadzone=21,11 / fast_pskip=1 / chroma_qp_offset=-2 / threads=30 / lookahead_threads=5 / sliced_threads=0 / nr=0 / decimate=1 / interlaced=0 / bluray_compat=0 / constrained_intra=0 / bframes=8 / b_pyramid=2 / b_adapt=2 / b_bias=0 / direct=3 / weightb=1 / open_gop=0 / weightp=2 / keyint=200 / keyint_min=100 / scenecut=40 / intra_refresh=0 / rc_lookahead=60 / rc=2pass / mbtree=1 / bitrate=6000 / ratetol=1.0 / qcomp=0.60 / qpmin=0 / qpmax=69 / qpstep=4 / cplxblur=20.0 / qblur=0.5 / vbv_maxrate=6600 / vbv_bufsize=9000 / nal_hrd=none / filler=0 / ip_ratio=1.40 / aq=1:1.00
Default : Yes
Forced : No

Audio #1
ID : 2
Format : AC-3
Format/Info : Audio Coding 3
Commercial name : Dolby Digital
Codec ID : A_AC3
Duration : 1 h 31 min
Bit rate mode : Constant
Bit rate : 448 kb/s
Channel(s) : 6 channels
Channel layout : L R C LFE Ls Rs
Sampling rate : 48.0 kHz
Frame rate : 31.250 FPS (1536 SPF)
Compression mode : Lossy
Stream size : 292 MiB (7%)
Title : MVO AC3 (KinoPoisk HD)
Language : Russian
Service kind : Complete Main
Default : Yes
Forced : Yes

Audio #2
ID : 3
Format : E-AC-3
Format/Info : Enhanced AC-3
Commercial name : Dolby Digital Plus
Codec ID : A_EAC3
Duration : 1 h 31 min
Bit rate mode : Constant
Bit rate : 448 kb/s
Channel(s) : 6 channels
Channel layout : L R C LFE Ls Rs
Sampling rate : 48.0 kHz
Frame rate : 31.250 FPS (1536 SPF)
Compression mode : Lossy
Stream size : 292 MiB (7%)
Title : MVO E-AC3 (KinoPoisk HD)
Language : Russian
Service kind : Complete Main
Default : No
Forced : No

piratbit.org



Скачать Пес-молокосос через торрент https://i6.imageban.ru/out/2022/01/13/91b2db9119abe64a14070faf9fad34ca.jpg Скачать, смотреть онлайн Пес-молокосос бесплантно в хорошем качестве Описание: Мэтт и его говорящий пес Аллан ищут голливудской славы как дуэт стендап-комиков. Они — идеальные сценические партнеры и ... 7.8 10 4
Торрент: Зарегистрирован [2022-01-13 16:48] · скачан: 36 раз
Статус: √ проверено
Размер: 4.37 GB
Как cкачать? Как скачать Пес-молокосос через торрент | UTorrent

% Раздел Тема Автор DL S | L
Фильмы 2019-2020 [DVDrip, WEB-DLRip, HDrip] (DUB, MVO) [ 1.46 GB ] Пес-молокосос / Allan the Dog [2020 WEB-DLRip] MVO [КиноПоиск HD] bober100 Скачать
5 | 0

28-11-2019 20:33  

Отключить всю рекламу на сайте

16-01-2022 10:29 Пес-молокосос Скачать торрент  

потерянное время piratbit.org



    Дорогой пользователь! Огромная просьба, поблагодарите релизера, оцените раздачу и оставьте свои комментарий, если Вы скачали Пес-молокосос через торрент бесплатно!
    Комментировать посты могут только пользователи прошедшие не сложную регистрацию
    Показать сообщения:    

    Пес-молокосос через торрент
    Скачать бесплатно Пес-молокосос
    Пес-молокосос скачать торрент
    Пес-молокосос смотреть онлайн
    Cкачать фильм Пес-молокосос бесплатно
    Пес-молокосос скачать торрент в хорошем качестве
    Пес-молокосос смотреть онлайн бесплатно в хорошем качестве


    Вы не можете начинать темы
    Вы не можете отвечать на сообщения
    Вы не можете редактировать свои сообщения
    Вы не можете удалять свои сообщения
    Вы не можете голосовать в опросах
    Вы не можете прикреплять файлы к сообщениям
    Вы можете скачивать файлы