Всегда рабочее зеркало без VPN и Proxy просто перед .vidak.icu напиши любое слово или цифру, Пример http://4l6.vidak.icu

>

7.4

iTunes

7.4

2 сезон

6.6

iTunes

1

6.9

1 сезон

7.2

iTunes

6.0

MVO

13

6.1

iTunes

8.3

Пиратка

30

ULTIMATE

pack

9.9

Лицензия

ВАЖНО

ИГРА 18+

pack

7.3

RePack

MK11

7.7

RePack

jed

7.8

RePack

fifa19

8.5

RePack

RDR2

RePack

NEED FOR SPEED™ PAYBACK

1 сезон

9 сезон

Бесстыжие 9 сезон

Все сериалы

все сериалы на PB.wtf

RePack

FAR CRY 5

Anonymous, добрый вечер, мы катастрофически не успеваем собрать деньги на оплату серверов, помогите нам пожалуйста 5,10,15р., для нас важна любая помощь . В качестве благодарности мы отключим Вам всю рекламу на сайте (укажите свой ник в строку Ваше имя)!

×
  
Magnet ссылка

Монстры на каникулах: Трансформания / Hotel Transylvania: Transformania (Дерек Драймон, Дженнифер Клуска) [2022, Мультфильм, ужасы, фэнтези, комедия, приключения, семейный, WEB-DL 720p] DUB [Amazon Prime Video] piratbit.org

Монстры на каникулах: Трансформания через торрент piratbit.org

Раздают: 61 [ 2 MB/s ] Качают: 1 [ 0 KB/s ]
Размер: 3.34 GB | Добавлен: 14 д. назад | Торрент скачан:288 раз
Смотреть онлайн Монстры на каникулах: Трансформания | Скачать    Ребята, помогите собрать деньги на оплату серверов!!!

14-01-2022 04:54 Монстры на каникулах: Трансформания Скачать торрент  

Монстры на каникулах: Трансформания
Hotel Transylvania: Transformania

Год выпуска: 2022
Страна: США
Студия: Columbia Pictures Corporation, Media Rights Capital, Sony Pictures Animation
Жанр: Мультфильм, ужасы, фэнтези, комедия, приключения, семейный
Продолжительность: 01:27:31
Перевод: Дублированный | Amazon Prime Video
Субтитры: Русские (Forced, full), украинские (Full), английские

Режиссер: Дерек Драймон, Дженнифер Клуска

rating

В ролях: Брайан Халл, Энди Сэмберг, Селена Гомес, Кэтрин Хан, Стив Бушеми, Дэвид Спейд, Кигэн-Майкл Ки, Эшер Блинкофф, Брэд Эбрелл, Фрэн Дрешер

Описание: Все смешалось в отеле «Трансильвания»: таинственное изобретение Ван Хельсинга, «монстрифицирующий луч», ломается и случайно превращает Дракулу и его приятелей в людей, а Джонни — наоборот, в монстра. Лишенные своих способностей и привычного облика Драк с друзьями и Джонни, с неожиданным удовольствием раскрывающий свою монстрическую сущность, отправляются в кругосветное путешествие на поиски средства от трансформании. И, конечно, им не обойтись без помощи Мэвис, пока не стало слишком поздно и они не свели друг друга с ума.

Качество: WEB-DL 720p
Формат: MKV

Видео: MPEG-4 AVC, 1280x688, 4000 Кbit/s, 23.976 fps
Аудио #01: 48 kHz, E-AC3, 5.1, 640 Kbps | Дублированный | Amazon Prime Video | RUS |
Аудио #02: 48 kHz, AC3, 5.1, 640 Kbps | Дублированный | Amazon Prime Video | RUS |
Аудио #03: 48 kHz, E-AC3, 5.1, 640 Kbps | Оригинал | ENG |
скриншот  скриншот  скриншот  скриншот  скриншот  

General
Unique ID : 201591470557394674353225058603124276125 (0x97A91ADF2E0B5EBE6F53483F71023B9D)
Complete name : E:VideoHotel.Transylvania.4.Transformania.2022.AMZN.WEB-DL.720p.seleZen.mkv
Format : Matroska
Format version : Version 4
File size : 3.34 GiB
Duration : 1 h 27 min
Overall bit rate : 5 468 kb/s
Movie name : Hotel Transylvania 4 Transformania 2022 from seleZen
Encoded date : UTC 2022-01-14 03:39:44
Writing application : mkvmerge v59.0.0 ('Shining Star') 64-bit
Writing library : libebml v1.4.2 + libmatroska v1.6.4

Video
ID : 1
Format : AVC
Format/Info : Advanced Video Codec
Format profile : High@L3.1
Format settings : CABAC / 4 Ref Frames
Format settings, CABAC : Yes
Format settings, Reference : 4 frames
Codec ID : V_MPEG4/ISO/AVC
Duration : 1 h 27 min
Bit rate mode : Constant
Bit rate : 3 545 kb/s
Nominal bit rate : 4 000 kb/s
Width : 1 280 pixels
Height : 688 pixels
Display aspect ratio : 1.85:1
Frame rate mode : Constant
Frame rate : 23.976 (24000/1001) FPS
Color space : YUV
Chroma subsampling : 4:2:0
Bit depth : 8 bits
Scan type : Progressive
Bits/(Pixel*Frame) : 0.168
Stream size : 2.17 GiB (65%)
Language : English
Default : Yes
Forced : No
Color range : Limited
Color primaries : BT.709
Transfer characteristics : BT.709
Matrix coefficients : BT.709

Audio #1
ID : 2
Format : E-AC-3
Format/Info : Enhanced AC-3
Commercial name : Dolby Digital Plus
Codec ID : A_EAC3
Duration : 1 h 27 min
Bit rate mode : Constant
Bit rate : 640 kb/s
Channel(s) : 6 channels
Channel layout : L R C LFE Ls Rs
Sampling rate : 48.0 kHz
Frame rate : 31.250 FPS (1536 SPF)
Compression mode : Lossy
Stream size : 401 MiB (12%)
Title : Dub
Language : Russian
Service kind : Complete Main
Default : Yes
Forced : Yes

Audio #2
ID : 3
Format : AC-3
Format/Info : Audio Coding 3
Commercial name : Dolby Digital
Codec ID : A_AC3
Duration : 1 h 27 min
Bit rate mode : Constant
Bit rate : 640 kb/s
Channel(s) : 6 channels
Channel layout : L R C LFE Ls Rs
Sampling rate : 48.0 kHz
Frame rate : 31.250 FPS (1536 SPF)
Compression mode : Lossy
Stream size : 401 MiB (12%)
Title : Dub
Language : Russian
Service kind : Complete Main
Default : No
Forced : No

Audio #3
ID : 4
Format : E-AC-3
Format/Info : Enhanced AC-3
Commercial name : Dolby Digital Plus
Codec ID : A_EAC3
Duration : 1 h 27 min
Bit rate mode : Constant
Bit rate : 640 kb/s
Channel(s) : 6 channels
Channel layout : L R C LFE Ls Rs
Sampling rate : 48.0 kHz
Frame rate : 31.250 FPS (1536 SPF)
Compression mode : Lossy
Stream size : 401 MiB (12%)
Title : Original
Language : English
Service kind : Complete Main
Default : No
Forced : No

Text #1
ID : 5
Format : UTF-8
Codec ID : S_TEXT/UTF8
Codec ID/Info : UTF-8 Plain Text
Duration : 1 h 25 min
Bit rate : 1 b/s
Count of elements : 20
Stream size : 787 Bytes (0%)
Title : Forced
Language : Russian
Default : Yes
Forced : Yes

Text #2
ID : 6
Format : UTF-8
Codec ID : S_TEXT/UTF8
Codec ID/Info : UTF-8 Plain Text
Duration : 1 h 26 min
Bit rate : 74 b/s
Count of elements : 1030
Stream size : 47.4 KiB (0%)
Title : Full
Language : Russian
Default : No
Forced : No

Text #3
ID : 7
Format : UTF-8
Codec ID : S_TEXT/UTF8
Codec ID/Info : UTF-8 Plain Text
Duration : 1 h 26 min
Bit rate : 73 b/s
Count of elements : 1029
Stream size : 46.7 KiB (0%)
Title : Full
Language : Ukrainian
Default : No
Forced : No

Text #4
ID : 8
Format : UTF-8
Codec ID : S_TEXT/UTF8
Codec ID/Info : UTF-8 Plain Text
Duration : 1 h 27 min
Bit rate : 61 b/s
Count of elements : 1749
Stream size : 39.1 KiB (0%)
Title : Full
Language : English
Default : No
Forced : No

Text #5
ID : 9
Format : UTF-8
Codec ID : S_TEXT/UTF8
Codec ID/Info : UTF-8 Plain Text
Duration : 1 h 27 min
Bit rate : 68 b/s
Count of elements : 1878
Stream size : 43.6 KiB (0%)
Title : SDH
Language : English
Default : No
Forced : No

Menu
00:00:00.000 : Amazon Original
00:00:06.000 : Studio Logo
00:00:39.000 : Scene 3
00:06:19.000 : Scene 4
00:09:44.000 : Scene 5
00:15:49.000 : Scene 6
00:18:10.000 : Scene 7
00:22:49.000 : Scene 8
00:26:39.000 : Scene 9
00:28:54.000 : Scene 10
00:31:21.000 : Scene 11
00:33:01.000 : Scene 12
00:34:11.000 : Scene 13
00:36:28.000 : Scene 14
00:37:07.000 : Scene 15
00:38:13.000 : Scene 16
00:40:54.000 : Scene 17
00:45:33.000 : Scene 18
00:47:15.000 : Scene 19
00:48:32.000 : Scene 20
00:51:44.000 : Scene 21
00:57:04.000 : Scene 22
01:05:33.000 : Scene 23
01:13:43.000 : Scene 24
01:17:02.000 : Scene 25
01:17:48.000 : End Credits

piratbit.org



Скачать Монстры на каникулах: Трансформания через торрент https://d.radikal.ru/d01/2201/32/f6f5b8e6ab4e.jpg Скачать, смотреть онлайн Монстры на каникулах: Трансформания бесплантно в хорошем качестве Описание: Все смешалось в отеле «Трансильвания»: таинственное изобретение Ван Хельсинга, «монстрифицирующий луч», ломается и случайно ... 10 10 7
Info! Золотая раздача, скачанное не засчитывается.
Торрент: Зарегистрирован [2022-01-14 04:54] · скачан: 288 раз
Статус: √ проверено
Размер: 3.34 GB
Как cкачать? Как скачать Монстры на каникулах: Трансформания через торрент | UTorrent

% Раздел Тема Автор DL S | L
Мультфильмы (48-60 fps) [ 3.58 GB ] Монстры на каникулах: Трансформания / Hotel Transylvania: Transformania [2022 Мультфильм WEB-DLRip 720p / 60 FPS ] от R.G. HD-Films slaventi-69 Скачать
41 | 2
Иностранные мультфильмы [ 1.8 GB ] Монстры на каникулах: Трансформания / Hotel Transylvania: Transformania [2022 Мультфильм WEB-DLRip-AVC] DUB [Amazon Prime Video] от ExKinoRay Lithuania Скачать
17 | 2
Иностранные мультфильмы [ 1.45 GB ] Монстры на каникулах: Трансформания / Hotel Transylvania: Transformania [2022 Мультфильм WEB-DLRip-AVC] DUB [Amazon Prime Video] bober100 Скачать
6 | 0
Иностранные мультфильмы [ 1.46 GB ] Монстры на каникулах: Трансформания / Hotel Transylvania: Transformania [2022 Мультфильм WEB-DLRip] - [Amazon Prime Video] Twi7ter Скачать
322 | 21
Иностранные мультфильмы [ 1.46 GB ] Монстры на каникулах: Трансформания / Hotel Transylvania: Transformania [2022 Мультфильм WEB-DLRip] DUB [Amazon Prime Video] bober100 Скачать
20 | 0
Ultra HD (UHD: 2K, 4K, 8K) [ 10.15 GB ] Монстры на каникулах: Трансформания / Hotel Transylvania: Transformania [2022 Мультфильм UHD WEB-DL-HEVC 2160p] DUB [Amazon Prime Video] bober100 Скачать
50 | 6
Зарубежные Мультфильмы (WEB-DL 720p, 1080p) [ 6.51 GB ] Монстры на каникулах: Трансформания / Hotel Transylvania: Transformania [2022 Мультфильм WEB-DL 1080p] DUB [Amazon Prime Video] bober100 Скачать
43 | 3

28-11-2019 20:33  

Отключить всю рекламу на сайте

    Дорогой пользователь! Огромная просьба, поблагодарите релизера, оцените раздачу и оставьте свои комментарий, если Вы скачали Монстры на каникулах: Трансформания через торрент бесплатно!
    Комментировать посты могут только пользователи прошедшие не сложную регистрацию
    Показать сообщения:    

    Монстры на каникулах: Трансформания через торрент
    Скачать бесплатно Монстры на каникулах: Трансформания
    Монстры на каникулах: Трансформания скачать торрент
    Монстры на каникулах: Трансформания смотреть онлайн
    Cкачать фильм Монстры на каникулах: Трансформания бесплатно
    Монстры на каникулах: Трансформания скачать торрент в хорошем качестве
    Монстры на каникулах: Трансформания смотреть онлайн бесплатно в хорошем качестве


    Вы не можете начинать темы
    Вы не можете отвечать на сообщения
    Вы не можете редактировать свои сообщения
    Вы не можете удалять свои сообщения
    Вы не можете голосовать в опросах
    Вы не можете прикреплять файлы к сообщениям
    Вы можете скачивать файлы