Всегда рабочее зеркало просто перед .vidak.icu напиши любое слово или цифру, Пример http://0xy.vidak.icu

>

7.4

iTunes

7.4

2 сезон

9.4

1 сезон

1

7.4

2 сезон

7.2

iTunes

6.0

MVO

13

6.1

iTunes

8.3

Пиратка

30

ULTIMATE

pack

9.9

Лицензия

ВАЖНО

ИГРА 18+

pack

7.3

RePack

MK11

7.7

RePack

jed

7.8

RePack

fifa19

8.5

RePack

RDR2

RePack

NEED FOR SPEED™ PAYBACK

1 сезон

9 сезон

Бесстыжие 9 сезон

Все сериалы

все сериалы на PB.wtf

RePack

FAR CRY 5

Anonymous, добрый вечер, мы катастрофически не успеваем собрать деньги на оплату серверов, помогите нам пожалуйста 5,10,15р., для нас важна любая помощь . В качестве благодарности мы отключим Вам всю рекламу на сайте (укажите свой ник в строку Ваше имя)!

×
  
Magnet ссылка

Следом за жизнью / Жизнь после смерти / После жизни / After Life / Сезон: 3 / Серии: 1-6 из 6 (Рики Джервэйс) [2022, драма, комедия, WEB-DL 1080p] [MVO] (VSI Moscow) piratbit.org

Следом за жизнью через торрент piratbit.org

Размер: 6.3 GB | Добавлен: 6 д. назад | Торрент скачан:16 раз
Смотреть онлайн Следом за жизнью | Скачать    Ребята, помогите собрать деньги на оплату серверов!!!

14-01-2022 12:27 Следом за жизнью Скачать торрент  

Следом за жизнью / Жизнь после смерти / После жизни / After Life Год выхода: 2022
Страна
: Великобритания
Жанр: драма, комедия
Продолжительность: ~00:30:00
Перевод: Профессиональный (многоголосый закадровый) VSI Moscow по заказу Netflix
Режиссер: Рики Джервэйс

В ролях: Рики Джервэйс, Том Басден, Дэвид Брэдли, Рошин Конати, Керри Гадлимен, Эшли Дженсен, Пол Кэй, Дайан Морган, Тони Вэй, Джо Уилкинсон и др.
Описание: Тони был счастливым человеком, пока не пережил страшную потерю. Внезапная смерть жены изменила жизнь главного героя и его самого — от добродушного, участливого парня не осталось и следа. Тони решил наказать этот жестокий мир, отныне поступая только так, как хочется ему. Но его наплевательское отношение к себе и остальным не мешает окружающим пытаться помочь тому старому доброму Тони, которого они помнят.

rating

Качество: WEB-DL 1080p
Формат: MKV
Видео кодек: AVC
Аудио кодек: AC3, E-AC3
Видео: 1920x1080 at 25.000 fps, MPEG-4 AVC, ~5000 kbps avg
Аудио #1: Russian 48 kHz, E-AC3, 3/2 (L,C,R,l,r) + LFE ch, ~640 kbps avg |VSI Moscow|
Аудио #2: English 48 kHz, E-AC3, 3/2 (L,C,R,l,r) + LFE ch, ~640 kbps avg |Eng|
Субтитры: Russian (Forced, Full), English (SDH) и другие
General
Unique ID : 241084478463084192604860684793519824622 (0xB55F2E7EA45930BF434D2D6449445EEE)
Complete name : After.Life.S03E01.Episode.1.1080p.NF.WEB-DL.DDP5.1.H.264-EniaHD.mkv
Format : Matroska
Format version : Version 4
File size : 889 MiB
Duration : 26 min 38 s
Overall bit rate mode : Variable
Overall bit rate : 4 665 kb/s
Movie name : After Life S03E01 [Episode 1] - EniaHD
Writing application : mkvmerge v53.0.0 ('Fool's Gold') 64-bit
Writing library : libebml v1.4.1 + libmatroska v1.6.2

Video
ID : 1
Format : AVC
Format/Info : Advanced Video Codec
Format profile : Main@L4
Format settings : CABAC / 3 Ref Frames
Format settings, CABAC : Yes
Format settings, Reference fra : 3 frames
Codec ID : V_MPEG4/ISO/AVC
Duration : 26 min 38 s
Bit rate mode : Variable
Bit rate : 3 575 kb/s
Nominal bit rate : 6 190 kb/s
Maximum bit rate : 9 285 kb/s
Width : 1 920 pixels
Height : 1 080 pixels
Display aspect ratio : 16:9
Frame rate mode : Constant
Frame rate : 25.000 FPS
Color space : YUV
Chroma subsampling : 4:2:0
Bit depth : 8 bits
Scan type : Progressive
Bits/(Pixel*Frame) : 0.069
Stream size : 681 MiB (77%)
Writing library : x264 core 148 r2727 7d026e8
Encoding settings : cabac=1 / ref=3 / deblock=1:0:0 / analyse=0x1:0x111 / me=umh / subme=10 / psy=1 / psy_rd=1.00:0.00 / mixed_ref=1 / me_range=24 / chroma_me=1 / trellis=2 / 8x8dct=0 / cqm=0 / deadzone=21,11 / fast_pskip=1 / chroma_qp_offset=-2 / threads=6 / lookahead_threads=1 / sliced_threads=0 / nr=0 / decimate=1 / interlaced=0 / bluray_compat=0 / stitchable=1 / constrained_intra=0 / bframes=2 / b_pyramid=0 / b_adapt=2 / b_bias=0 / direct=3 / weightb=1 / open_gop=0 / weightp=2 / keyint=250 / keyint_min=25 / scenecut=0 / intra_refresh=0 / rc_lookahead=50 / rc=2pass / mbtree=1 / bitrate=6190 / ratetol=1.0 / qcomp=0.50 / qpmin=6 / qpmax=51 / qpstep=4 / cplxblur=20.0 / qblur=0.5 / vbv_maxrate=9285 / vbv_bufsize=12380 / nal_hrd=vbr / filler=0 / ip_ratio=1.40 / aq=1:1.00
Default : Yes
Forced : No

Audio #1
ID : 2
Format : E-AC-3
Format/Info : Enhanced AC-3
Commercial name : Dolby Digital Plus
Codec ID : A_EAC3
Duration : 26 min 38 s
Bit rate mode : Constant
Bit rate : 640 kb/s
Channel(s) : 6 channels
Channel layout : L R C LFE Ls Rs
Sampling rate : 48.0 kHz
Frame rate : 31.250 FPS (1536 SPF)
Compression mode : Lossy
Stream size : 122 MiB (14%)
Language : Russian
Service kind : Complete Main
Default : Yes
Forced : No

Audio #2
ID : 3
Format : E-AC-3
Format/Info : Enhanced AC-3
Commercial name : Dolby Digital Plus
Codec ID : A_EAC3
Duration : 26 min 38 s
Bit rate mode : Constant
Bit rate : 448 kb/s
Channel(s) : 6 channels
Channel layout : L R C LFE Ls Rs
Sampling rate : 48.0 kHz
Frame rate : 31.250 FPS (1536 SPF)
Compression mode : Lossy
Stream size : 85.4 MiB (10%)
Language : English
Service kind : Complete Main
Default : No
Forced : No

Text #1
ID : 4
Format : UTF-8
Codec ID : S_TEXT/UTF8
Codec ID/Info : UTF-8 Plain Text
Duration : 16 min 21 s
Bit rate : 1 b/s
Count of elements : 5
Stream size : 205 Bytes (0%)
Title : Forced
Language : Russian
Default : Yes
Forced : No

Text #2
ID : 5
Format : UTF-8
Codec ID : S_TEXT/UTF8
Codec ID/Info : UTF-8 Plain Text
Duration : 25 min 20 s
Bit rate : 119 b/s
Count of elements : 439
Stream size : 22.1 KiB (0%)
Language : Russian
Default : No
Forced : No

Text #3
ID : 6
Format : UTF-8
Codec ID : S_TEXT/UTF8
Codec ID/Info : UTF-8 Plain Text
Duration : 25 min 23 s
Bit rate : 97 b/s
Count of elements : 501
Stream size : 18.2 KiB (0%)
Title : SDH
Language : English
Default : No
Forced : No

Text #4
ID : 7
Format : UTF-8
Codec ID : S_TEXT/UTF8
Codec ID/Info : UTF-8 Plain Text
Duration : 25 min 19 s
Bit rate : 114 b/s
Count of elements : 432
Stream size : 21.3 KiB (0%)
Language : Ukrainian
Default : No
Forced : No

скриншот  скриншот  скриншот  
piratbit.org



Скачать Следом за жизнью через торрент https://i2.imageban.ru/out/2022/01/14/e9c20161c8880dfc0b137e0ce86c3d9b.jpg Скачать, смотреть онлайн Следом за жизнью бесплантно в хорошем качестве Описание: Тони был счастливым человеком, пока не пережил страшную потерю. Внезапная смерть жены изменила жизнь главного героя и его самого ... 10 10 2
Торрент: Зарегистрирован [2022-01-14 12:53] · скачан: 16 раз
Статус: √ проверено
Размер: 6.3 GB
Как cкачать? Как скачать Следом за жизнью через торрент | UTorrent

28-11-2019 20:33  

Отключить всю рекламу на сайте

    Дорогой пользователь! Огромная просьба, поблагодарите релизера, оцените раздачу и оставьте свои комментарий, если Вы скачали Следом за жизнью через торрент бесплатно!
    Комментировать посты могут только пользователи прошедшие не сложную регистрацию
    Показать сообщения:    

    Следом за жизнью через торрент
    Скачать бесплатно Следом за жизнью
    Следом за жизнью скачать торрент
    Следом за жизнью смотреть онлайн
    Cкачать фильм Следом за жизнью бесплатно
    Следом за жизнью скачать торрент в хорошем качестве
    Следом за жизнью смотреть онлайн бесплатно в хорошем качестве


    Вы не можете начинать темы
    Вы не можете отвечать на сообщения
    Вы не можете редактировать свои сообщения
    Вы не можете удалять свои сообщения
    Вы не можете голосовать в опросах
    Вы не можете прикреплять файлы к сообщениям
    Вы можете скачивать файлы