Всегда рабочее зеркало без VPN и Proxy просто перед .vidak.icu напиши любое слово или цифру, Пример http://qkdw.vidak.icu

MVO

2 сезон

2 сезон

1

1 сезон

iTunes

2 сезон

13

1 сезон

Deluxe

pack

Рекомендуем

Пиратка

30

ВАЖНО

RePack

MK11

RePack

jed

RePack

fifa19

RePack

RDR2

RePack

NEED FOR SPEED™ PAYBACK

Кинопоиск HD

6 сезон

 Острые козырьки 6 сезон

Все сериалы

все сериалы на PB.wtf

RePack

FAR CRY 5

Anonymous, нам критически не хватает 5601 руб. на оплату серверов и переферии за Апрель, помоги нам пожалуйста, вся надежда только на тебя. В благодарность мы отключим тебе всю рекламу на сайте!

×
  
Magnet ссылка

Монстры на каникулах: Трансформания / Hotel Transylvania: Transformania (Дерек Драймон, Дженнифер Клуска) [2022, Мультфильм, ужасы, фэнтези, комедия, приключения, семейный, WEB-DLRip 720p / 60 FPS, Дубляж] от R.G. HD-Films piratbit.org

Монстры на каникулах: Трансформания через торрент piratbit.org

Раздают: 12 [ 316 KB/s ] Качают: 1 [ 0 KB/s ]
Размер: 3.58 GB | Добавлен: 4 мес. 4 д. назад | Торрент скачан:464 раза
Смотреть онлайн Монстры на каникулах: Трансформания | Скачать    Ребята, помогите собрать деньги на оплату серверов!!!

16-01-2022 13:28 Монстры на каникулах: Трансформания Скачать торрент  

Монстры на каникулах: Трансформания / Hotel Transylvania: Transformania
Год выпуска: 2022
Страна: США
Жанр: Мультфильм, ужасы, фэнтези, комедия, приключения, семейный
Продолжительность: 01:27:26
Перевод: Дубляж ( Amazon Prime Video )
Субтитры: Русские (Forced вшитые, full), украинские (Full), английские

Режиссер: Дерек Драймон, Дженнифер Клуска

Премьера в мире: 13 января 2022

rating

В ролях: Брайан Халл, Энди Сэмберг, Селена Гомес, Кэтрин Хан, Стив Бушеми, Дэвид Спейд, Кигэн-Майкл Ки, Эшер Блинкофф, Брэд Эбрелл, Фрэн Дрешер

Описание: Все смешалось в отеле «Трансильвания»: таинственное изобретение Ван Хельсинга, «монстрифицирующий луч», ломается и случайно превращает Дракулу и его приятелей в людей, а Джонни — наоборот, в монстра. Лишенные своих способностей и привычного облика Драк с друзьями и Джонни, с неожиданным удовольствием раскрывающий свою монстрическую сущность, отправляются в кругосветное путешествие на поиски средства от трансформании. И, конечно, им не обойтись без помощи Мэвис, пока не стало слишком поздно и они не свели друг друга с ума.

Качество: WEB-DLRip 720p / 60 FPS
Формат: MKV
Видео кодек: H.264
Аудио кодек: AC3
Видео: x264, 1280 x 688 ( 1,85:1 ), 5477 kbps, 60,000 fps, ( 0.104 bpp)
Аудио#1: Русский, AC-3, 48.0 KHz, 6 ch, 384 Kbps Dub ( Amazon Prime Video )
Автор рипа: slaventi-69
x264 [info]: profile High, level 4.1

x264 [info]: frame I:1366 Avg QP:15.24 size: 99675
x264 [info]: frame P:82567 Avg QP:16.67 size: 22552
x264 [info]: frame B:230865 Avg QP:18.79 size: 6904
x264 [info]: consecutive B-frames: 2.9% 5.9% 13.9% 23.4% 39.0% 14.8%


Общее
Уникальный идентификатор : 111963309385858026860350072334138171592 (0x543B59597FAA3209EE2F68E1942F60C8)
Полное имя : G:\60 FPS\Hotel.Transylvania_Transformania.(2022).WEB-DLRip.720p.(60 Fps).mkv
Формат : Matroska
Версия формата : Version 4
Размер файла : 3,58 Гбайт
Продолжительность : 1 ч. 27 м.
Общий поток : 5864 Кбит/сек
Название фильма : Монстры на каникулах: Трансформания / Hotel Transylvania: Transformania (2022) WEB-DL 720p (60 Fps)
Дата кодирования : UTC 2022-01-16 12:49:49
Программа кодирования : mkvmerge v25.0.0 ('Prog Noir') 64-bit
Библиотека кодирования : libebml v1.3.6 + libmatroska v1.4.9

Видео
Идентификатор : 1
Формат : AVC
Формат/Информация : Advanced Video Codec
Профиль формата : High@L4.1
Настройки формата : CABAC / 9 Ref Frames
Параметр CABAC формата : Да
Параметр RefFrames формата : 9 кадров
Идентификатор кодека : V_MPEG4/ISO/AVC
Продолжительность : 1 ч. 27 м.
Битрейт : 5477 Кбит/сек
Ширина : 1280 пикселей
Высота : 688 пикселей
Соотношение сторон : 1,85:1
Режим частоты кадров : Постоянный
Частота кадров : 60,000 кадров/сек
Цветовое пространство : YUV
Субдискретизация насыщенности : 4:2:0
Битовая глубина : 8 бит
Тип развёртки : Прогрессивная
Бит/(Пиксели*Кадры) : 0.104
Размер потока : 3,35 Гбайт (93%)
Заголовок : slaventi-69 ( R.G. HD-Films | 60 fps )
Библиотека кодирования : x264 core 130 r2273 b3065e6
Настройки программы : cabac=1 / ref=9 / deblock=1:-2:-2 / analyse=0x3:0x133 / me=umh / subme=9 / psy=1 / psy_rd=1.00:0.00 / mixed_ref=1 / me_range=30 / chroma_me=1 / trellis=2 / 8x8dct=1 / cqm=0 / deadzone=21,11 / fast_pskip=0 / chroma_qp_offset=-2 / threads=10 / lookahead_threads=2 / sliced_threads=0 / nr=0 / decimate=1 / interlaced=0 / bluray_compat=0 / constrained_intra=0 / bframes=5 / b_pyramid=2 / b_adapt=2 / b_bias=0 / direct=1 / weightb=1 / open_gop=0 / weightp=2 / keyint=600 / keyint_min=23 / scenecut=40 / intra_refresh=0 / rc=crf / mbtree=0 / crf=16.8 / qcomp=0.60 / qpmin=0 / qpmax=69 / qpstep=4 / ip_ratio=1.40 / pb_ratio=1.30 / aq=1:1.00
Язык : English
Default : Да
Forced : Нет

Аудио
Идентификатор : 2
Формат : AC-3
Формат/Информация : Audio Coding 3
Коммерческое название : Dolby Digital
Идентификатор кодека : A_AC3
Продолжительность : 1 ч. 27 м.
Вид битрейта : Постоянный
Битрейт : 384 Кбит/сек
Каналы : 6 каналов
Channel layout : L R C LFE Ls Rs
Частота : 48,0 КГц
Частота кадров : 31,250 кадров/сек (1536 SPF)
Битовая глубина : 16 бит
Метод сжатия : С потерями
Размер потока : 240 Мбайт (7%)
Заголовок : Dub ( Amazon Prime Video )
Язык : Russian
ServiceKind/String : Complete Main
Default : Да
Forced : Нет

Текст #1
Идентификатор : 3
Формат : UTF-8
Идентификатор кодека : S_TEXT/UTF8
Идентификатор кодека/Информация : UTF-8 Plain Text
Продолжительность : 1 ч. 26 м.
Битрейт : 74 бит/сек
ElementCount : 1030
Размер потока : 47,4 Кбайт (0%)
Заголовок : Full
Язык : Russian
Default : Нет
Forced : Нет

Текст #2
Идентификатор : 4
Формат : UTF-8
Идентификатор кодека : S_TEXT/UTF8
Идентификатор кодека/Информация : UTF-8 Plain Text
Продолжительность : 1 ч. 26 м.
Битрейт : 73 бит/сек
ElementCount : 1029
Размер потока : 46,7 Кбайт (0%)
Заголовок : Full
Язык : Ukrainian
Default : Нет
Forced : Нет

Текст #3
Идентификатор : 5
Формат : UTF-8
Идентификатор кодека : S_TEXT/UTF8
Идентификатор кодека/Информация : UTF-8 Plain Text
Продолжительность : 1 ч. 27 м.
Битрейт : 61 бит/сек
ElementCount : 1749
Размер потока : 39,1 Кбайт (0%)
Заголовок : Full
Язык : English
Default : Нет
Forced : Нет

Текст #4
Идентификатор : 6
Формат : UTF-8
Идентификатор кодека : S_TEXT/UTF8
Идентификатор кодека/Информация : UTF-8 Plain Text
Продолжительность : 1 ч. 27 м.
Битрейт : 68 бит/сек
ElementCount : 1878
Размер потока : 43,6 Кбайт (0%)
Заголовок : SDH
Язык : English
Default : Нет
Forced : Нет

Меню
00:00:00.000 : Amazon Original
00:00:06.000 : Studio Logo
00:00:39.000 : Scene 3
00:06:19.000 : Scene 4
00:09:44.000 : Scene 5
00:15:49.000 : Scene 6
00:18:10.000 : Scene 7
00:22:49.000 : Scene 8
00:26:39.000 : Scene 9
00:28:54.000 : Scene 10
00:31:21.000 : Scene 11
00:33:01.000 : Scene 12
00:34:11.000 : Scene 13
00:36:28.000 : Scene 14
00:37:07.000 : Scene 15
00:38:13.000 : Scene 16
00:40:54.000 : Scene 17
00:45:33.000 : Scene 18
00:47:15.000 : Scene 19
00:48:32.000 : Scene 20
00:51:44.000 : Scene 21
00:57:04.000 : Scene 22
01:05:33.000 : Scene 23
01:13:43.000 : Scene 24
01:17:02.000 : Scene 25
01:17:48.000 : End Credits

Просьба к переливающим на другие сайты, в оформлении указывайте пожалуйста авторство группы R.G. HD-Films piratbit.org



Скачать Монстры на каникулах: Трансформания через торрент https://d.radikal.ru/d01/2201/32/f6f5b8e6ab4e.jpg Скачать, смотреть онлайн Монстры на каникулах: Трансформания бесплантно в хорошем качестве Описание: Все смешалось в отеле «Трансильвания»: таинственное изобретение Ван Хельсинга, «монстрифицирующий луч», ломается и случайно ... 10 10 18
Info! Золотая раздача, скачанное не засчитывается.
Торрент: Зарегистрирован [2022-01-16 13:28] · скачан: 464 раз
Статус: √ проверено
Размер: 3.58 GB
Как cкачать? Как скачать Монстры на каникулах: Трансформания через торрент | UTorrent

28-11-2019 20:33  

Отключить всю рекламу на сайте

17-01-2022 19:10 Монстры на каникулах: Трансформания Скачать торрент  

Не зря вышло на амазоне, не для кинотеатра уже явно.
Самая слабая часть, да и предыдущая уже не шедевр.piratbit.org



17-01-2022 19:51 Монстры на каникулах: Трансформания Скачать торрент  

Я не ожидал, что этот фильм сразу выйдет на Prime Video.

Я большой поклонник "Отеля Трансильвания", хотя третий фильм мне не очень понравился.

Большое спасибо, что поделились фильмом с частотой 60 кадров в секунду.piratbit.org



    Дорогой пользователь! Огромная просьба, поблагодарите релизера, оцените раздачу и оставьте свои комментарий, если Вы скачали Монстры на каникулах: Трансформания через торрент бесплатно!
    Комментировать посты могут только пользователи прошедшие не сложную регистрацию
    Показать сообщения:    

    Монстры на каникулах: Трансформания через торрент
    Скачать бесплатно Монстры на каникулах: Трансформания
    Монстры на каникулах: Трансформания скачать торрент
    Монстры на каникулах: Трансформания смотреть онлайн
    Cкачать фильм Монстры на каникулах: Трансформания бесплатно
    Монстры на каникулах: Трансформания скачать торрент в хорошем качестве
    Монстры на каникулах: Трансформания смотреть онлайн бесплатно в хорошем качестве


    Вы не можете начинать темы
    Вы не можете отвечать на сообщения
    Вы не можете редактировать свои сообщения
    Вы не можете удалять свои сообщения
    Вы не можете голосовать в опросах
    Вы не можете прикреплять файлы к сообщениям
    Вы можете скачивать файлы