Всегда рабочее зеркало без VPN и Proxy просто перед .vidak.icu напиши любое слово или цифру, Пример http://sm00.vidak.icu

MVO

2 сезон

1 сезон

1

1 сезон

iTunes

2 сезон

13

1 сезон

Распродажа

pack

Рекомендуем

Пиратка

30

ВАЖНО

RePack

MK11

RePack

jed

RePack

fifa19

RePack

RDR2

RePack

NEED FOR SPEED™ PAYBACK

Кинопоиск HD

6 сезон

 Острые козырьки 6 сезон

Все сериалы

все сериалы на PB.wtf

RePack

FAR CRY 5

Anonymous, нам критически не хватает 5601 руб. на оплату серверов и переферии за Апрель, помоги нам пожалуйста, вся надежда только на тебя. В благодарность мы отключим тебе всю рекламу на сайте!

×
  
Magnet ссылка

Ленинград - Пока так [Клип] [2022, Рок, WEBRip 1080p] piratbit.org

Ленинград - Пока так через торрент piratbit.org

Раздают: 3 [ 0 KB/s ] Качают: 2 [ 0 KB/s ]
Размер: 68 MB | Добавлен: 4 мес. 4 д. назад | Торрент скачан:81 раз
Смотреть онлайн Ленинград - Пока так | Скачать    Ребята, помогите собрать деньги на оплату серверов!!!

17-01-2022 07:52 Ленинград - Пока так Скачать торрент  

Ленинград - Пока так [Клип]
Год выпуска: 2022
Страна: Россия
Жанр: Рок
Продолжительность: 00:02:29
Перевод: Не требуется
Субтитры: отсутствуют

Качество: WEBRip 1080p
Формат: MKV

Видео: AVC, 3719 kb/s, 1920x1080 (1.778), 25.000 fps
Аудио: AAC, 128 kb/s, 2 channels, 44.1 kHz
скриншот  скриншот  скриншот  скриншот  

Format : Matroska
Format version : Version 4
File size : 68.4 MiB
Duration : 2 min 29 s
Overall bit rate : 3 848 kb/s
Encoded date : UTC 2022-01-16 12:36:49
Writing application : mkvmerge v51.0.0 ('I Wish') 64-bit
Writing library : libebml v1.4.0 + libmatroska v1.6.2

Video
ID : 1
Format : AVC
Format/Info : Advanced Video Codec
Format profile : High@L4
Format settings : CABAC / 3 Ref Frames
Format settings, CABAC : Yes
Format settings, Reference frames : 3 frames
Codec ID : V_MPEG4/ISO/AVC
Duration : 2 min 28 s
Bit rate : 3 719 kb/s
Width : 1 920 pixels
Height : 1 080 pixels
Display aspect ratio : 16:9
Frame rate mode : Constant
Frame rate : 25.000 FPS
Color space : YUV
Chroma subsampling : 4:2:0
Bit depth : 8 bits
Scan type : Progressive
Bits/(Pixel*Frame) : 0.072
Stream size : 66.0 MiB (97%)
Writing library : x264 core 155 r2901 7d0ff22
Default : Yes
Forced : No
Color range : Limited
Color primaries : BT.709
Transfer characteristics : BT.709
Matrix coefficients : BT.709

Audio
ID : 2
Format : AAC LC
Format/Info : Advanced Audio Codec Low Complexity
Codec ID : A_AAC-2
Duration : 2 min 29 s
Bit rate : 128 kb/s
Channel(s) : 2 channels
Channel layout : L R
Sampling rate : 44.1 kHz
Frame rate : 43.066 FPS (1024 SPF)
Compression mode : Lossy
Stream size : 2.27 MiB (3%)
Language : English
Default : Yes
Forced : No

piratbit.org



Скачать Ленинград - Пока так через торрент https://a.radikal.ru/a13/2201/4c/05c353145492.jpg Скачать, смотреть онлайн Ленинград - Пока так [Клип] [2022, Рок, WEBRip 1080p] бесплантно в хорошем качестве Год выпуска: 2022Страна: РоссияЖанр: РокПродолжительность: 00:02:29Перевод: Не требуетсяСубтитры: ... 10 10 4
Торрент: Зарегистрирован [2022-01-17 07:52] · скачан: 81 раз
Статус: √ проверено
Размер: 68 MB
Как cкачать? Как скачать Ленинград - Пока так через торрент | UTorrent

28-11-2019 20:33  

Отключить всю рекламу на сайте

    Дорогой пользователь! Огромная просьба, поблагодарите релизера, оцените раздачу и оставьте свои комментарий, если Вы скачали Ленинград - Пока так через торрент бесплатно!
    Комментировать посты могут только пользователи прошедшие не сложную регистрацию
    Показать сообщения:    

    Ленинград - Пока так через торрент
    Скачать бесплатно Ленинград - Пока так
    Ленинград - Пока так скачать торрент
    Ленинград - Пока так смотреть онлайн
    Cкачать фильм Ленинград - Пока так бесплатно
    Ленинград - Пока так скачать торрент в хорошем качестве
    Ленинград - Пока так смотреть онлайн бесплатно в хорошем качестве


    Вы не можете начинать темы
    Вы не можете отвечать на сообщения
    Вы не можете редактировать свои сообщения
    Вы не можете удалять свои сообщения
    Вы не можете голосовать в опросах
    Вы не можете прикреплять файлы к сообщениям
    Вы можете скачивать файлы